Subcategories

Jacques Loussier Trio play Bach... and more (2004/2014) Blu-ray

Posted By: popsakov
Jacques Loussier Trio play Bach... and more (2004/2014) Blu-ray

Jacques Loussier Trio play Bach… and more (2004/2014)
Blu-ray | MPEG-4 AVC, 1920x1080i (16:9), 29,970 fps, 19927 kbps | Audio #1: LPCM 2.0, 48 kHz/16-bit, 1536 kbps
Audio #2: DTS-HD MA 5.1, 48 kHz/16-bit, 2284 kbps | ~ 20,9 Gb | RAR 5% Recovery
Classical, Jazz | 01:37:36 | EuroArts

Live concert in celebration of Loussier's 70th birthday. In performance in Bach's 'own' church, St Thomas's in Leipzig. A rare example of a commercially successful jazz artist. In fifteen years, the Jacquees Loussier trio sold over six million albums. Bonus feature: Jacques Loussier in Conversation.
~ Amazon


This 2004 concert, filmed in St Thomas' Church, Leipzig marks the 254th anniversary of Bach's death and the venue was purposefully chosen to celebrate the venue so closely connected with a protracted period of time when Bach was the organist at the church.

Bach, as many will know, was especially renowned for his improvisational skills which would have been very apparent at this church. It is therefore fitting that Jacques Loussier, also known for his improvisational skills and especially as related to works of Bach, should perform this concert at the venue.

The trio, having previously been disbanded, was reformed in 1985 and it is that group that plays here. The program is more far reaching than that played by the original group as Loussier has extended his musical improvisations into the 20th century world of the French composers, Debussy, Ravel and Satie.

Thus we hear his improvisations on two of Debussy's piano compositions, the Arabesque (from two Arabesques), and L'isle Joyeuse. Satie's Gymnopedie for piano, the first of the three that he wrote, then follows. The French set concludes with an extended improvisation based on Ravel's orchestral Bolero. This is an extended piece for the trio and at nearly 13 minutes is the longest single piece on the disc.

The bonus feature is an interview with Jacques Loussier in which he gives a background history to his style of playing and its development and extension into the French world as above from the earlier Bach world. During this interview he is at pains to stress that the improvisations are very much worked-through compositions with an improvisatory feel but actually being fixed compositions. Therefore what is heard in this recent concert is very similar to the versions created and performed right at the start of his career. This means that much of this concert will be very familiar to long-term supporters of the group.

Returning to Bach, not surprisingly the disc both opens and closes with Bach, the final item being an improvisation around the Allegro movement from Bach's Harpsichord concerto 3. The majority of the concert focuses on Bach's inspiration and the first 5 pieces in the concert are the familiar Fugue 5; the gavotte in D; The Pastorale in c minor; the Air on a G String and finally, all three movements from the Brandenburg concerto 5.

The technical aspects of this disc are excellent with sharp imaging of good colour rendition. The sound provides excellent DTS 5.1 as well as stereo.

This disc will give plenty of pleasure to the supporters of the trio and is clearly an improvement over other earlier recordings so far as sound is concerned. Jacques Loussier is not the most demonstrative of performers, being full of applied concentration. Nevertheless this is a fine example of the Trio performing its current repertoire and supported by excellent recording and on top form.

Those familiar with Loussier's interpretive and performing style will be aware that his general approach to music making has varied little over the years other than being applied to a widening repertoire of original inspirations as demonstrated in this concert. This disc therefore is a faithful recording of the trio's current repertoire and simultaneously a confirmation of Jacques Loussier's individual approach to musical improvisation with a Bachian twist.
~ I. Giles, Amazon

***************

Jacques Loussier Trio play Bach... and more (2004/2014) Blu-ray

Track List:

Johann Sebastian Bach

Fugue No. 5 in D major
Gavotte in D major
Pastorale in C minor
Air on a G String
Brandenburg Concerto No. 5 in D major
Harpsichord Concerto No. 3 in D major

Claude Debussy

Arabesque
L'Isle joyeuse

Erik Satie

Gymnopedie No. 1

Maurice Ravel

Bolero

Jacques Loussier (piano)
Bennoit Dunoyer de Segonzac (bass)
Andre Arpino (drums)

Disc Title: Jacques Loussier Trio play Bach… and more (2004_2014) Blu-ray
Disc Size: 21 537 634 182 bytes
Protection: AACS
BD-Java: No
BDInfo: 0.5.8

Notes:

BDINFO HOME:
Cinema Squid
http://www.cinemasquid.com/blu-ray/tools/bdinfo

INCLUDES FORUMS REPORT FOR:
AVS Forum Blu-ray Audio and Video Specifications Thread
http://www.avsforum.com/avs-vb/showthread.php?t=1155731


********************
PLAYLIST: 00000.MPLS
********************
Total Video
Title Codec Length Movie Size Disc Size Bitrate Bitrate Main Audio Track Secondary Audio Track
––- ––– –––- ––––––– ––––––– –––- –––- ––––––––– ––––––––––-
00000.MPLS AVC 1:37:36 18 547 144 704 21 537 634 182 25,33 19,93 LPCM 2.0 1536Kbps (48kHz/16-bit) DTS-HD Master 5.1 2284Kbps (48kHz/16-bit)

DISC INFO:

Disc Title: Jacques Loussier Trio play Bach… and more (2004_2014) Blu-ray
Disc Size: 21 537 634 182 bytes
Protection: AACS
BD-Java: No
BDInfo: 0.5.8

PLAYLIST REPORT:

Name: 00000.MPLS
Length: 1:37:36.784 (h:m:s.ms)
Size: 18 547 144 704 bytes
Total Bitrate: 25,33 Mbps

VIDEO:

Codec Bitrate Description
––- –––- –––––-
MPEG-4 AVC Video 19927 kbps 1080i / 29,970 fps / 16:9 / High Profile 4.1

AUDIO:

Codec Language Bitrate Description
––- –––– –––- –––––-
LPCM Audio Undetermined 1536 kbps 2.0 / 48 kHz / 1536 kbps / 16-bit
DTS-HD Master Audio Undetermined 2284 kbps 5.1 / 48 kHz / 2284 kbps / 16-bit (DTS Core: 5.1 / 48 kHz / 1509 kbps / 16-bit)

FILES:

Name Time In Length Size Total Bitrate
–– –––- ––– –– ––––––-
00000.M2TS 0:00:00.000 1:37:14.361 18 543 925 248 25 427
00009.M2TS 1:37:14.361 0:00:14.047 1 112 064 633
00008.M2TS 1:37:28.409 0:00:08.041 2 095 104 2 084
00007.M2TS 1:37:36.450 0:00:00.333 12 288 295

CHAPTERS:

Number Time In Length Avg Video Rate Max 1-Sec Rate Max 1-Sec Time Max 5-Sec Rate Max 5-Sec Time Max 10Sec Rate Max 10Sec Time Avg Frame Size Max Frame Size Max Frame Time
––– –––- ––– ––––––– ––––––– ––––––– ––––––– ––––––– ––––––– ––––––– ––––––– ––––––– –––––––
1 0:00:00.000 0:01:03.096 14 547 kbps 30 635 kbps 00:00:39.939 23 983 kbps 00:00:38.104 21 475 kbps 00:00:39.939 60 641 bytes 500 312 bytes 00:00:22.422
2 0:01:03.096 0:05:53.686 19 395 kbps 27 624 kbps 00:05:56.155 25 017 kbps 00:01:09.302 24 106 kbps 00:01:09.102 80 893 bytes 426 757 bytes 00:03:42.088
3 0:06:56.783 0:08:50.263 20 382 kbps 27 069 kbps 00:13:44.723 25 298 kbps 00:11:06.165 24 144 kbps 00:12:39.024 85 010 bytes 351 780 bytes 00:10:34.667
4 0:15:47.046 0:10:36.802 19 645 kbps 29 503 kbps 00:25:59.291 26 249 kbps 00:25:57.789 23 588 kbps 00:25:07.839 81 937 bytes 399 847 bytes 00:25:33.098
5 0:26:23.848 0:04:14.253 18 417 kbps 27 994 kbps 00:30:11.676 24 370 kbps 00:30:11.042 21 609 kbps 00:30:11.676 76 816 bytes 350 740 bytes 00:30:22.554
6 0:30:38.102 0:11:23.749 21 202 kbps 30 824 kbps 00:38:26.570 29 544 kbps 00:38:22.566 27 347 kbps 00:37:23.107 88 430 bytes 363 847 bytes 00:33:53.731
7 0:42:01.852 0:05:28.494 19 408 kbps 26 401 kbps 00:42:03.254 23 087 kbps 00:42:02.453 21 595 kbps 00:45:24.254 80 947 bytes 348 422 bytes 00:42:04.255
8 0:47:30.347 0:11:11.137 19 752 kbps 27 055 kbps 00:58:05.248 24 426 kbps 00:48:56.500 22 726 kbps 00:48:56.500 82 383 bytes 365 264 bytes 00:58:26.536
9 0:58:41.484 0:06:09.535 19 279 kbps 26 068 kbps 01:03:27.503 23 479 kbps 01:04:34.170 21 942 kbps 01:01:46.035 80 409 bytes 352 944 bytes 00:59:48.251
10 1:04:51.020 0:06:35.261 20 139 kbps 28 320 kbps 01:06:38.160 25 362 kbps 01:06:21.043 24 400 kbps 01:06:35.524 83 997 bytes 378 519 bytes 01:11:01.557
11 1:11:26.282 0:05:04.837 19 510 kbps 27 560 kbps 01:16:05.193 26 165 kbps 01:16:04.393 25 556 kbps 01:16:03.392 81 374 bytes 347 889 bytes 01:16:18.874
12 1:16:31.119 0:12:36.822 20 597 kbps 30 689 kbps 01:26:10.532 27 636 kbps 01:26:06.528 26 386 kbps 01:26:01.556 85 907 bytes 359 549 bytes 01:27:48.029
13 1:29:07.942 0:06:16.776 20 934 kbps 33 517 kbps 01:34:36.103 25 929 kbps 01:34:32.299 24 804 kbps 01:34:27.261 87 313 bytes 324 863 bytes 01:35:02.296
14 1:35:24.719 0:01:49.642 20 719 kbps 28 804 kbps 01:37:00.681 25 585 kbps 01:37:00.681 24 685 kbps 01:36:58.078 86 417 bytes 347 114 bytes 01:36:21.108
15 1:37:14.361 0:00:14.047 526 kbps 1 474 kbps 01:37:19.733 985 kbps 01:37:15.529 686 kbps 01:37:14.361 2 193 bytes 23 543 bytes 01:37:17.364
16 1:37:28.409 0:00:08.375 1 820 kbps 3 711 kbps 01:37:29.510 2 363 kbps 01:37:28.409 0 kbps 00:00:00.000 7 619 bytes 26 315 bytes 01:37:31.612

STREAM DIAGNOSTICS:

File PID Type Codec Language Seconds Bitrate Bytes Packets
–– –- –– ––- –––– ––––––– ––––––– ––––––- ––-
00000.M2TS 4113 (0x1011) 0x1B AVC 5834,295 20 000 14 585 803 721 79 373 012
00000.M2TS 4352 (0x1100) 0x80 LPCM und (Undetermined) 5834,295 1 547 1 127 880 000 7 020 000
00000.M2TS 4353 (0x1101) 0x86 DTS-HD MA und (Undetermined) 5834,295 2 292 1 671 764 180 9 993 938
00009.M2TS 4113 (0x1011) 0x1B AVC 13,914 532 924 426 5 314
00008.M2TS 4113 (0x1011) 0x1B AVC 7,975 1 906 1 900 213 10 633
00007.M2TS 4113 (0x1011) 0x1B AVC 0,200 244 6 107 41

QUICK SUMMARY:

Disc Title: Jacques Loussier Trio play Bach… and more (2004_2014) Blu-ray
Disc Size: 21 537 634 182 bytes
Protection: AACS
BD-Java: No
Playlist: 00000.MPLS
Size: 18 547 144 704 bytes
Length: 1:37:36.784
Total Bitrate: 25,33 Mbps
Video: MPEG-4 AVC Video / 19927 kbps / 1080i / 29,970 fps / 16:9 / High Profile 4.1
Audio: Undetermined / LPCM Audio / 2.0 / 48 kHz / 1536 kbps / 16-bit
Audio: Undetermined / DTS-HD Master Audio / 5.1 / 48 kHz / 2284 kbps / 16-bit (DTS Core: 5.1 / 48 kHz / 1509 kbps / 16-bit)


********************
PLAYLIST: 00004.MPLS
********************
Total Video
Title Codec Length Movie Size Disc Size Bitrate Bitrate Main Audio Track Secondary Audio Track
––- ––– –––- ––––––– ––––––– –––- –––- ––––––––– ––––––––––-
00004.MPLS AVC 0:03:25 423 610 368 21 537 634 182 16,49 13,96 LPCM 2.0 1536Kbps (48kHz/16-bit)

DISC INFO:

Disc Title: Jacques Loussier Trio play Bach… and more (2004_2014) Blu-ray
Disc Size: 21 537 634 182 bytes
Protection: AACS
BD-Java: No
BDInfo: 0.5.8

PLAYLIST REPORT:

Name: 00004.MPLS
Length: 0:03:25.538 (h:m:s.ms)
Size: 423 610 368 bytes
Total Bitrate: 16,49 Mbps

VIDEO:

Codec Bitrate Description
––- –––- –––––-
MPEG-4 AVC Video 13962 kbps 1080i / 29,970 fps / 16:9 / High Profile 4.1

AUDIO:

Codec Language Bitrate Description
––- –––– –––- –––––-
LPCM Audio Undetermined 1536 kbps 2.0 / 48 kHz / 1536 kbps / 16-bit

FILES:

Name Time In Length Size Total Bitrate
–– –––- ––– –– ––––––-
00010.M2TS 0:00:00.000 0:03:25.205 423 598 080 16 514
00007.M2TS 0:03:25.205 0:00:00.333 12 288 295

CHAPTERS:

Number Time In Length Avg Video Rate Max 1-Sec Rate Max 1-Sec Time Max 5-Sec Rate Max 5-Sec Time Max 10Sec Rate Max 10Sec Time Avg Frame Size Max Frame Size Max Frame Time
––– –––- ––– ––––––– ––––––– ––––––– ––––––– ––––––– ––––––– ––––––– ––––––– ––––––– –––––––
1 0:00:00.000 0:03:25.538 13 962 kbps 27 091 kbps 00:01:46.139 24 552 kbps 00:01:44.504 21 969 kbps 00:01:43.503 58 234 bytes 361 459 bytes 00:01:49.476

STREAM DIAGNOSTICS:

File PID Type Codec Language Seconds Bitrate Bytes Packets
–– –- –– ––- –––– ––––––– ––––––– ––––––- ––-
00010.M2TS 4113 (0x1011) 0x1B AVC 205,072 13 994 358 712 798 1 953 107
00010.M2TS 4352 (0x1100) 0x80 LPCM und (Undetermined) 205,072 1 543 39 563 524 246 246
00007.M2TS 4113 (0x1011) 0x1B AVC 0,200 244 6 107 41

QUICK SUMMARY:

Disc Title: Jacques Loussier Trio play Bach… and more (2004_2014) Blu-ray
Disc Size: 21 537 634 182 bytes
Protection: AACS
BD-Java: No
Playlist: 00004.MPLS
Size: 423 610 368 bytes
Length: 0:03:25.538
Total Bitrate: 16,49 Mbps
Video: MPEG-4 AVC Video / 13962 kbps / 1080i / 29,970 fps / 16:9 / High Profile 4.1
Audio: Undetermined / LPCM Audio / 2.0 / 48 kHz / 1536 kbps / 16-bit


********************
PLAYLIST: 00005.MPLS
********************
Total Video
Title Codec Length Movie Size Disc Size Bitrate Bitrate Main Audio Track Secondary Audio Track
––- ––– –––- ––––––– ––––––– –––- –––- ––––––––– ––––––––––-
00005.MPLS AVC 0:02:40 298 850 304 21 537 634 182 14,90 13,95 DD AC3 2.0 192Kbps

DISC INFO:

Disc Title: Jacques Loussier Trio play Bach… and more (2004_2014) Blu-ray
Disc Size: 21 537 634 182 bytes
Protection: AACS
BD-Java: No
BDInfo: 0.5.8

PLAYLIST REPORT:

Name: 00005.MPLS
Length: 0:02:40.493 (h:m:s.ms)
Size: 298 850 304 bytes
Total Bitrate: 14,90 Mbps

VIDEO:

Codec Bitrate Description
––- –––- –––––-
MPEG-4 AVC Video 13949 kbps 1080i / 29,970 fps / 16:9 / High Profile 4.1

AUDIO:

Codec Language Bitrate Description
––- –––– –––- –––––-
Dolby Digital Audio Undetermined 192 kbps 2.0 / 48 kHz / 192 kbps

FILES:

Name Time In Length Size Total Bitrate
–– –––- ––– –– ––––––-
00006.M2TS 0:00:00.000 0:02:40.159 298 838 016 14 927
00007.M2TS 0:02:40.159 0:00:00.333 12 288 295

CHAPTERS:

Number Time In Length Avg Video Rate Max 1-Sec Rate Max 1-Sec Time Max 5-Sec Rate Max 5-Sec Time Max 10Sec Rate Max 10Sec Time Avg Frame Size Max Frame Size Max Frame Time
––– –––- ––– ––––––– ––––––– ––––––– ––––––– ––––––– ––––––– ––––––– ––––––– ––––––– –––––––
1 0:00:00.000 0:02:40.493 13 949 kbps 22 260 kbps 00:02:20.440 21 306 kbps 00:02:12.699 20 940 kbps 00:02:11.431 58 179 bytes 260 588 bytes 00:01:46.573

STREAM DIAGNOSTICS:

File PID Type Codec Language Seconds Bitrate Bytes Packets
–– –- –– ––- –––– ––––––– ––––––– ––––––- ––-
00006.M2TS 4113 (0x1011) 0x1B AVC 160,027 13 989 279 833 835 1 526 029
00006.M2TS 4352 (0x1100) 0x81 AC3 und (Undetermined) 160,027 192 3 843 072 25 020
00007.M2TS 4113 (0x1011) 0x1B AVC 0,200 244 6 107 41

QUICK SUMMARY:

Disc Title: Jacques Loussier Trio play Bach… and more (2004_2014) Blu-ray
Disc Size: 21 537 634 182 bytes
Protection: AACS
BD-Java: No
Playlist: 00005.MPLS
Size: 298 850 304 bytes
Length: 0:02:40.493
Total Bitrate: 14,90 Mbps
Video: MPEG-4 AVC Video / 13949 kbps / 1080i / 29,970 fps / 16:9 / High Profile 4.1
Audio: Undetermined / Dolby Digital Audio / 2.0 / 48 kHz / 192 kbps


********************
PLAYLIST: 00003.MPLS
********************
Total Video
Title Codec Length Movie Size Disc Size Bitrate Bitrate Main Audio Track Secondary Audio Track
––- ––– –––- ––––––– ––––––– –––- –––- ––––––––– ––––––––––-
00003.MPLS AVC 0:02:38 326 916 096 21 537 634 182 16,50 13,95 LPCM 2.0 1536Kbps (48kHz/16-bit)

DISC INFO:

Disc Title: Jacques Loussier Trio play Bach… and more (2004_2014) Blu-ray
Disc Size: 21 537 634 182 bytes
Protection: AACS
BD-Java: No
BDInfo: 0.5.8

PLAYLIST REPORT:

Name: 00003.MPLS
Length: 0:02:38.525 (h:m:s.ms)
Size: 326 916 096 bytes
Total Bitrate: 16,50 Mbps

VIDEO:

Codec Bitrate Description
––- –––- –––––-
MPEG-4 AVC Video 13949 kbps 1080i / 29,970 fps / 16:9 / High Profile 4.1

AUDIO:

Codec Language Bitrate Description
––- –––– –––- –––––-
LPCM Audio Undetermined 1536 kbps 2.0 / 48 kHz / 1536 kbps / 16-bit

FILES:

Name Time In Length Size Total Bitrate
–– –––- ––– –– ––––––-
00002.M2TS 0:00:00.000 0:02:38.191 326 903 808 16 532
00007.M2TS 0:02:38.191 0:00:00.333 12 288 295

CHAPTERS:

Number Time In Length Avg Video Rate Max 1-Sec Rate Max 1-Sec Time Max 5-Sec Rate Max 5-Sec Time Max 10Sec Rate Max 10Sec Time Avg Frame Size Max Frame Size Max Frame Time
––– –––- ––– ––––––– ––––––– ––––––– ––––––– ––––––– ––––––– ––––––– ––––––– ––––––– –––––––
1 0:00:00.000 0:02:38.525 13 949 kbps 20 591 kbps 00:00:46.846 19 027 kbps 00:00:23.089 18 601 kbps 00:00:43.843 58 180 bytes 197 219 bytes 00:00:26.393

STREAM DIAGNOSTICS:

File PID Type Codec Language Seconds Bitrate Bytes Packets
–– –- –– ––- –––– ––––––– ––––––– ––––––- ––-
00002.M2TS 4113 (0x1011) 0x1B AVC 158,125 13 984 276 409 346 1 507 470
00002.M2TS 4352 (0x1100) 0x80 LPCM und (Undetermined) 158,125 1 543 30 499 996 189 834
00007.M2TS 4113 (0x1011) 0x1B AVC 0,200 244 6 107 41

QUICK SUMMARY:

Disc Title: Jacques Loussier Trio play Bach… and more (2004_2014) Blu-ray
Disc Size: 21 537 634 182 bytes
Protection: AACS
BD-Java: No
Playlist: 00003.MPLS
Size: 326 916 096 bytes
Length: 0:02:38.525
Total Bitrate: 16,50 Mbps
Video: MPEG-4 AVC Video / 13949 kbps / 1080i / 29,970 fps / 16:9 / High Profile 4.1
Audio: Undetermined / LPCM Audio / 2.0 / 48 kHz / 1536 kbps / 16-bit

********************
PLAYLIST: 00001.MPLS
********************
Total Video
Title Codec Length Movie Size Disc Size Bitrate Bitrate Main Audio Track Secondary Audio Track
––- ––– –––- ––––––– ––––––– –––- –––- ––––––––– ––––––––––-
00001.MPLS AVC 0:13:45 897 097 728 21 537 634 182 8,69 8,00 DD AC3 2.0 192Kbps

DISC INFO:

Disc Title: Jacques Loussier Trio play Bach… and more (2004_2014) Blu-ray
Disc Size: 21 537 634 182 bytes
Protection: AACS
BD-Java: No
BDInfo: 0.5.8

PLAYLIST REPORT:

Name: 00001.MPLS
Length: 0:13:45.591 (h:m:s.ms)
Size: 897 097 728 bytes
Total Bitrate: 8,69 Mbps

VIDEO:

Codec Bitrate Description
––- –––- –––––-
MPEG-4 AVC Video 7996 kbps 480i / 29,970 fps / 16:9 / High Profile 4.1

AUDIO:

Codec Language Bitrate Description
––- –––– –––- –––––-
Dolby Digital Audio French 192 kbps 2.0 / 48 kHz / 192 kbps

SUBTITLES:

Codec Language Bitrate Description
––- –––– –––- –––––-
Presentation Graphics English 12,483 kbps
Presentation Graphics German 13,697 kbps

FILES:

Name Time In Length Size Total Bitrate
–– –––- ––– –– ––––––-
00001.M2TS 0:00:00.000 0:13:45.257 897 085 440 8 696
00015.M2TS 0:13:45.257 0:00:00.333 12 288 295

CHAPTERS:

Number Time In Length Avg Video Rate Max 1-Sec Rate Max 1-Sec Time Max 5-Sec Rate Max 5-Sec Time Max 10Sec Rate Max 10Sec Time Avg Frame Size Max Frame Size Max Frame Time
––– –––- ––– ––––––– ––––––– ––––––– ––––––– ––––––– ––––––– ––––––– ––––––– ––––––– –––––––
1 0:00:00.000 0:07:47.967 8 096 kbps 12 432 kbps 00:00:40.173 11 214 kbps 00:00:37.504 10 282 kbps 00:01:21.181 33 766 bytes 149 948 bytes 00:01:16.776
2 0:07:47.967 0:05:57.623 7 866 kbps 11 374 kbps 00:09:27.533 10 422 kbps 00:09:23.529 10 312 kbps 00:09:18.524 32 811 bytes 134 724 bytes 00:13:01.780

STREAM DIAGNOSTICS:

File PID Type Codec Language Seconds Bitrate Bytes Packets
–– –- –– ––- –––– ––––––– ––––––– ––––––- ––-
00001.M2TS 4113 (0x1011) 0x1B AVC 825,191 8 000 825 222 240 4 499 277
00001.M2TS 4352 (0x1100) 0x81 AC3 fra (French) 825,191 192 19 810 560 128 975
00001.M2TS 4608 (0x1200) 0x90 PGS eng (English) 825,191 12 1 288 212 7 855
00001.M2TS 4609 (0x1201) 0x90 PGS deu (German) 825,191 14 1 413 531 8 542
00015.M2TS 4113 (0x1011) 0x1B AVC 0 0 5 188 30

QUICK SUMMARY:

Disc Title: Jacques Loussier Trio play Bach… and more (2004_2014) Blu-ray
Disc Size: 21 537 634 182 bytes
Protection: AACS
BD-Java: No
Playlist: 00001.MPLS
Size: 897 097 728 bytes
Length: 0:13:45.591
Total Bitrate: 8,69 Mbps
Video: MPEG-4 AVC Video / 7996 kbps / 480i / 29,970 fps / 16:9 / High Profile 4.1
Audio: French / Dolby Digital Audio / 2.0 / 48 kHz / 192 kbps
Subtitle: English / 12,483 kbps
Subtitle: German / 13,697 kbps


********************
PLAYLIST: 00006.MPLS
********************
Total Video
Title Codec Length Movie Size Disc Size Bitrate Bitrate Main Audio Track Secondary Audio Track
––- ––– –––- ––––––– ––––––– –––- –––- ––––––––– ––––––––––-
00006.MPLS MPEG-2 0:03:29 801 067 008 21 537 634 182 30,55 27,44 LPCM 2.0 1536Kbps (48kHz/16-bit)

DISC INFO:

Disc Title: Jacques Loussier Trio play Bach… and more (2004_2014) Blu-ray
Disc Size: 21 537 634 182 bytes
Protection: AACS
BD-Java: No
BDInfo: 0.5.8

PLAYLIST REPORT:

Name: 00006.MPLS
Length: 0:03:29.742 (h:m:s.ms)
Size: 801 067 008 bytes
Total Bitrate: 30,55 Mbps

VIDEO:

Codec Bitrate Description
––- –––- –––––-
MPEG-2 Video 27442 kbps 1080i / 29,970 fps / 16:9

AUDIO:

Codec Language Bitrate Description
––- –––– –––- –––––-
LPCM Audio Undetermined 1536 kbps 2.0 / 48 kHz / 1536 kbps / 16-bit

FILES:

Name Time In Length Size Total Bitrate
–– –––- ––– –– ––––––-
00012.M2TS 0:00:00.000 0:03:29.409 801 017 856 30 601
00013.M2TS 0:03:29.409 0:00:00.333 49 152 1 178

CHAPTERS:

Number Time In Length Avg Video Rate Max 1-Sec Rate Max 1-Sec Time Max 5-Sec Rate Max 5-Sec Time Max 10Sec Rate Max 10Sec Time Avg Frame Size Max Frame Size Max Frame Time
––– –––- ––– ––––––– ––––––– ––––––– ––––––– ––––––– ––––––– ––––––– ––––––– ––––––– –––––––
1 0:00:00.000 0:03:29.742 27 442 kbps 32 634 kbps 00:00:07.240 30 490 kbps 00:00:09.075 30 100 kbps 00:02:27.013 114 457 bytes 548 602 bytes 00:00:08.241

STREAM DIAGNOSTICS:

File PID Type Codec Language Seconds Bitrate Bytes Packets
–– –- –– ––- –––– ––––––– ––––––– ––––––- ––-
00012.M2TS 4113 (0x1011) 0x02 MPEG-2 209,342 27 493 719 434 526 3 913 638
00012.M2TS 4352 (0x1100) 0x80 LPCM und (Undetermined) 209,342 1 543 40 374 248 251 292
00013.M2TS 4113 (0x1011) 0x02 MPEG-2 0,200 1 750 43 788 241

QUICK SUMMARY:

Disc Title: Jacques Loussier Trio play Bach… and more (2004_2014) Blu-ray
Disc Size: 21 537 634 182 bytes
Protection: AACS
BD-Java: No
Playlist: 00006.MPLS
Size: 801 067 008 bytes
Length: 0:03:29.742
Total Bitrate: 30,55 Mbps
Video: MPEG-2 Video / 27442 kbps / 1080i / 29,970 fps / 16:9
Audio: Undetermined / LPCM Audio / 2.0 / 48 kHz / 1536 kbps / 16-bit

Jacques Loussier Trio play Bach... and more (2004/2014) Blu-ray

Jacques Loussier Trio play Bach... and more (2004/2014) Blu-ray

Jacques Loussier Trio play Bach... and more (2004/2014) Blu-ray

Jacques Loussier Trio play Bach... and more (2004/2014) Blu-ray

Jacques Loussier Trio play Bach... and more (2004/2014) Blu-ray

Jacques Loussier Trio play Bach... and more (2004/2014) Blu-ray

Jacques Loussier Trio play Bach... and more (2004/2014) Blu-ray

Jacques Loussier Trio play Bach... and more (2004/2014) Blu-ray

All thanks go to meloman67

Visit my blog!

Download: