Subcategories

Jai Uttal - Monkey (1992)

Posted By: gribovar
Jai Uttal - Monkey (1992)

Jai Uttal - Monkey (1992)
EAC Rip | FLAC (image+.cue+log) - 370 MB | MP3 CBR 320 kbps (LAME 3.93) - 158 MB | Covers (11 MB) included
Genre: New Age, World | RAR 3% Rec. | Label: Triloka (320194-2)

On Monkey, young Jai Uttal continued to fuse Indian spiritual music and American pop with generally pleasing results. Once again, he demonstrates his mastery of acoustic Indian instruments like the harmonium and the dotar while using electronic synthesizers in a very human and soulful fashion. Though some of the material bears some resemblance to secular Indian pop of the '90s, which also unites synthesizers and traditional instruments, Uttal's overall approach is far from secular. While Uttal's own songs (both instrumental and with vocals) are dominant, "Govinda" is a moving version of the time-honored Hindu prayer. Jazz improviser Peter Apfelbaum is heard on both tenor sax and drums, and a fair amount of jazz influence asserts itself on "The Hooded Serpent" and the title song.
Tracklist:
01. Monkey
02. Soldiers
03. The Hooded Serpent
04. I Won't Ask For More
05. Govinda
06. Ayodhya (Court Of The King)
07. A Distant Episode
08. Heaven, part 1&2
09. Petition To Ram
10. Watching The Signs

Total time: 01:02:23

Exact Audio Copy V0.99 prebeta 5 from 4. May 2009

EAC extraction logfile from 6. July 2011, 15:56

Jai Uttal / Monkey

Used drive : _NEC DVD_RW ND-3500AG Adapter: 0 ID: 0

Read mode : Secure
Utilize accurate stream : Yes
Defeat audio cache : Yes
Make use of C2 pointers : No

Read offset correction : 48
Overread into Lead-In and Lead-Out : No
Fill up missing offset samples with silence : Yes
Delete leading and trailing silent blocks : No
Null samples used in CRC calculations : Yes
Used interface : Native Win32 interface for Win NT & 2000

Used output format : User Defined Encoder
Selected bitrate : 768 kBit/s
Quality : High
Add ID3 tag : No
Command line compressor : C:\Program Files\Exact Audio Copy\FLAC\FLAC.EXE
Additional command line options : -6 -V -T "ARTIST=%a" -T "TITLE=%t" -T "ALBUM=%g" -T "DATE=%y" -T "TRACKNUMBER=%n" -T "GENRE=%m" -T "COMMENT=%e" %s -o %d


TOC of the extracted CD

Track | Start | Length | Start sector | End sector
––––––––––––––––––––––––––––-
1 | 0:00.00 | 7:34.17 | 0 | 34066
2 | 7:34.17 | 4:49.15 | 34067 | 55756
3 | 12:23.32 | 6:36.08 | 55757 | 85464
4 | 18:59.40 | 5:14.72 | 85465 | 109086
5 | 24:14.37 | 5:11.68 | 109087 | 132479
6 | 29:26.30 | 7:25.45 | 132480 | 165899
7 | 36:52.00 | 6:01.62 | 165900 | 193036
8 | 42:53.62 | 6:21.70 | 193037 | 221681
9 | 49:15.57 | 7:03.43 | 221682 | 253449
10 | 56:19.25 | 6:03.20 | 253450 | 280694


Range status and errors

Selected range

Filename J:\eMusic\Rip\Jai Uttal - Monkey.wav

Peak level 99.6 %
Range quality 99.9 %
Copy CRC 7219C0F3
Copy OK

No errors occurred


AccurateRip summary

Track 1 accurately ripped (confidence 1) [47BD8BDC]
Track 2 accurately ripped (confidence 1) [B5E18128]
Track 3 accurately ripped (confidence 1) [AF8E8DF7]
Track 4 accurately ripped (confidence 1) [0EC8D1DC]
Track 5 accurately ripped (confidence 1) [C549546F]
Track 6 accurately ripped (confidence 1) [003E16BD]
Track 7 accurately ripped (confidence 1) [BF53AD57]
Track 8 accurately ripped (confidence 1) [EC3C559E]
Track 9 accurately ripped (confidence 1) [36C07B6E]
Track 10 accurately ripped (confidence 1) [91E44998]

All tracks accurately ripped

End of status report

[CUETools log; Date: 02.10.2017 12:35:23; Version: 2.1.4]
[CTDB TOCID: _unpQwAn0bAuafrA_QD81ED5qc0-] found.
Track | CTDB Status
1 | (1/1) Accurately ripped
2 | (1/1) Accurately ripped
3 | (1/1) Accurately ripped
4 | (1/1) Accurately ripped
5 | (1/1) Accurately ripped
6 | (1/1) Accurately ripped
7 | (1/1) Accurately ripped
8 | (1/1) Accurately ripped
9 | (1/1) Accurately ripped
10 | (1/1) Accurately ripped
[AccurateRip ID: 00175ee4-00bac64c-900e9e0a] found.
Track [ CRC | V2 ] Status
01 [47bd8bdc|8454bc9d] (2+2/4) Accurately ripped
02 [b5e18128|37fcf232] (2+2/4) Accurately ripped
03 [af8e8df7|e90e36ea] (2+2/4) Accurately ripped
04 [0ec8d1dc|47aa8689] (2+2/4) Accurately ripped
05 [c549546f|6e24e3b2] (2+2/4) Accurately ripped
06 [003e16bd|47391305] (2+2/4) Accurately ripped
07 [bf53ad57|b4f07000] (2+2/4) Accurately ripped
08 [ec3c559e|d4129179] (2+2/4) Accurately ripped
09 [36c07b6e|4e6fcb4c] (2+2/4) Accurately ripped
10 [91e44998|f8318e4c] (2+2/4) Accurately ripped

Track Peak [ CRC32 ] [W/O NULL] [ LOG ]
– 99,6 [7219C0F3] [31355253] CRC32
01 98,8 [64E584A4] [63651C52]
02 97,6 [6B5BF2ED] [2D135D22]
03 99,2 [98C34623] [354E350A]
04 99,6 [EDAB217D] [47A2BE47]
05 98,8 [D4D12F82] [8E1A9320]
06 98,8 [1B925203] [73184BDE]
07 98,8 [4062E796] [3185701B]
08 98,8 [39F14E31] [D1E86A9B]
09 98,8 [60CA9328] [01F83444]
10 88,1 [998D6356] [C6081180]

Thanks to intothe

See also:
Jai Uttal - Dial M For Mantra (2007)