Subcategories

James Galway, Jay Ungar & Molly Mason - A Song Of Home: An American Musical Journey (2002)

Posted By: popsakov
James Galway, Jay Ungar & Molly Mason - A Song Of Home: An American Musical Journey (2002)

James Galway, Jay Ungar & Molly Mason - A Song Of Home: An American Musical Journey (2002)
EAC Rip | FLAC (Img) + Cue + Log ~ 324 Mb | MP3 CBR320 ~ 143 Mb
Scans (JPG, 300 dpi) ~ 48 Mb | RAR 5% Recovery
Chamber Music, Folk, Country | RCA Victor #09026 63883 2

The living legend of the flute, Sir James Galway, is widely considered the supreme interpreter of classical flute repertoire and a consummate entertainer whose appeal transcends musical boundaries. His virtuosity on the flute is equalled only by his limitless ambitions and vision. Through extensive touring, over 30 million albums sold, and frequent appearances on television shows worldwide, Sir James has garnered a fan base of millions.

Since launching his successful career as a soloist in 1975, his busy touring schedule continues to include performances with the world’s leading orchestras and most prestigious conductors. Sir James is a tireless promoter of the arts, frequently commissioning new works for the flute, publishing articles and books and sharing his wisdom and experience with young musicians through his annual ‘Galway Flute Festival’ and his ground-breaking ‘First-Flute’ programme – a series of online, interactive lessons and master-classes.

***************

James Galway, Jay Ungar & Molly Mason - A Song Of Home: An American Musical Journey (2002)

Track List:

01. My Cape Breton Home [05:06]
02. Foster's Ladies [04:41]
03. Presidential Hornpipes [04:28]
04. A Roving on a Winter's Night [04:13]
05. The West Texas Waltz [04:46]
06. Oh Shenandoah / Shenandoah Falls [05:16]
07. The Lovers' Waltz [03:49]
08. Bound for California [04:12]
09. Heart of the Heartland [03:42]
10. Pretty Saro [04:58]
11. The Mountain Ranger [03:33]
12. Themes from 'Harvest Home Suite' [06:06]
13. Amazing Grace [04:47]

Exact Audio Copy V1.0 beta 3 from 29. August 2011

EAC extraction logfile from 12. August 2016, 20:24

James Galway, Jay Ungar & Molly Mason / A Song of Home | An American Musical Journey

Used drive : MATSHITABD-CMB UJ242AS Adapter: 0 ID: 1

Read mode : Secure
Utilize accurate stream : Yes
Defeat audio cache : Yes
Make use of C2 pointers : No

Read offset correction : 103
Overread into Lead-In and Lead-Out : No
Fill up missing offset samples with silence : Yes
Delete leading and trailing silent blocks : No
Null samples used in CRC calculations : Yes
Used interface : Installed external ASPI interface

Used output format : User Defined Encoder
Selected bitrate : 1024 kBit/s
Quality : High
Add ID3 tag : Yes
Command line compressor : C:\Program Files (x86)\Exact Audio Copy\Flac\flac.exe
Additional command line options : -V -8 -T "Date=%year%" -T "Genre=%genre%" %source%


TOC of the extracted CD

Track | Start | Length | Start sector | End sector
––––––––––––––––––––––––––––-
1 | 0:00.00 | 5:05.32 | 0 | 22906
2 | 5:05.32 | 4:40.59 | 22907 | 43965
3 | 9:46.16 | 4:28.00 | 43966 | 64065
4 | 14:14.16 | 4:12.35 | 64066 | 83000
5 | 18:26.51 | 4:45.06 | 83001 | 104381
6 | 23:11.57 | 5:15.58 | 104382 | 128064
7 | 28:27.40 | 3:48.21 | 128065 | 145185
8 | 32:15.61 | 4:11.34 | 145186 | 164044
9 | 36:27.20 | 3:41.56 | 164045 | 180675
10 | 40:09.01 | 4:57.60 | 180676 | 203010
11 | 45:06.61 | 3:32.56 | 203011 | 218966
12 | 48:39.42 | 6:05.04 | 218967 | 246345
13 | 54:44.46 | 4:46.54 | 246346 | 267849


Range status and errors

Selected range

Filename C:\EACrip\James Galway, Jay Ungar & Molly Mason - A Song of Home ! An American Musical Journey.wav

Peak level 100.0 %
Extraction speed 4.2 X
Range quality 99.9 %
Test CRC E7F45362
Copy CRC E7F45362
Copy OK

No errors occurred


AccurateRip summary

Track 1 cannot be verified as accurate (confidence 11) [9C64C23C], AccurateRip returned [D9DAD581] (AR v2)
Track 2 cannot be verified as accurate (confidence 11) [F4B626F1], AccurateRip returned [E49566B7] (AR v2)
Track 3 cannot be verified as accurate (confidence 11) [7A76C337], AccurateRip returned [BCAE4164] (AR v2)
Track 4 cannot be verified as accurate (confidence 11) [16260A47], AccurateRip returned [FEA599B7] (AR v2)
Track 5 cannot be verified as accurate (confidence 11) [B8285044], AccurateRip returned [7F43B4E2] (AR v2)
Track 6 cannot be verified as accurate (confidence 11) [B974E736], AccurateRip returned [FDAD8A7B] (AR v2)
Track 7 cannot be verified as accurate (confidence 11) [A716C2E3], AccurateRip returned [D7740C8C] (AR v2)
Track 8 cannot be verified as accurate (confidence 11) [7FF8C598], AccurateRip returned [AC42C7CA] (AR v2)
Track 9 cannot be verified as accurate (confidence 11) [CBCD2C96], AccurateRip returned [977139F5] (AR v2)
Track 10 cannot be verified as accurate (confidence 11) [15C788AF], AccurateRip returned [A286F3B4] (AR v2)
Track 11 cannot be verified as accurate (confidence 11) [A60C0B34], AccurateRip returned [CCCE5D3A] (AR v2)
Track 12 cannot be verified as accurate (confidence 11) [3C75AA86], AccurateRip returned [AA64C96C] (AR v2)
Track 13 cannot be verified as accurate (confidence 11) [EFCE499A], AccurateRip returned [FA0A1C1C] (AR v2)

No tracks could be verified as accurate
You may have a different pressing from the one(s) in the database

End of status report

==== Log checksum 72AEF9B1C69C6961DC2B4169B51B449AFDBC80FEA68C0A9A59E15803B5C5D89D ====

foobar2000 1.2.6 / Dynamic Range Meter 1.1.1
log date: 2016-08-17 21:30:16

––––––––––––––––––––––––––––––––––––––––
Analyzed: James Galway, Jay Ungar & Molly Mason / A Song of Home | An American Musical Journey
––––––––––––––––––––––––––––––––––––––––

DR Peak RMS Duration Track
––––––––––––––––––––––––––––––––––––––––
DR11 0.00 dB -15.57 dB 5:05 01-My Cape Breton Home
DR11 0.00 dB -14.81 dB 4:41 02-Foster's Ladies
DR13 -0.45 dB -16.25 dB 4:28 03-Presidential Hornpipes
DR12 0.00 dB -17.47 dB 4:12 04-A Roving on a Winter's Night
DR13 -0.45 dB -17.18 dB 4:45 05-The West Texas Waltz
DR12 -0.01 dB -16.42 dB 5:16 06-Oh Shenandoah / Shenandoah Falls
DR11 -0.02 dB -15.04 dB 3:48 07-The Lovers' Waltz
DR13 0.00 dB -15.93 dB 4:11 08-Bound for California
DR11 0.00 dB -16.90 dB 3:42 09-Heart of the Heartland
DR12 -0.85 dB -18.11 dB 4:58 10-Pretty Saro
DR13 0.00 dB -17.41 dB 3:33 11-The Mountain Ranger
DR12 -0.01 dB -15.55 dB 6:05 12-Themes from 'Harvest Home Suite'
DR12 -3.23 dB -19.88 dB 4:47 13-Amazing Grace
––––––––––––––––––––––––––––––––––––––––

Number of tracks: 13
Official DR value: DR12

Samplerate: 44100 Hz
Channels: 2
Bits per sample: 16
Bitrate: 724 kbps
Codec: FLAC
================================================================================

[CUETools log; Date: 17.08.2016 21:30:14; Version: 2.1.5]
[CTDB TOCID: axC_IVDXCwpI2Z7z10_c2u3xyNg-] found.
Track | CTDB Status
1 | (10/10) Accurately ripped
2 | (10/10) Accurately ripped
3 | (10/10) Accurately ripped
4 | (10/10) Accurately ripped
5 | (10/10) Accurately ripped
6 | (10/10) Accurately ripped
7 | (10/10) Accurately ripped
8 | (10/10) Accurately ripped
9 | (10/10) Accurately ripped
10 | (10/10) Accurately ripped
11 | (10/10) Accurately ripped
12 | (10/10) Accurately ripped
13 | (10/10) Accurately ripped
[AccurateRip ID: 001c9254-011c4381-c10df30d] found.
Track [ CRC | V2 ] Status
01 [6bbe91e8|9c64c23c] (00+00/16) No match
02 [431572e1|f4b626f1] (00+00/16) No match
03 [d776c1c6|7a76c337] (00+00/16) No match
04 [6579ee61|16260a47] (00+00/15) No match
05 [2daa1b0f|b8285044] (00+00/15) No match
06 [2d7e2fa6|b974e736] (00+00/16) No match
07 [806bebc4|a716c2e3] (00+00/16) No match
08 [294c0876|7ff8c598] (00+00/16) No match
09 [a82d08da|cbcd2c96] (00+00/16) No match
10 [55f57058|15c788af] (00+00/15) No match
11 [0e5e256b|a60c0b34] (00+00/15) No match
12 [0c66cece|3c75aa86] (00+00/16) No match
13 [0a749431|efce499a] (00+00/16) No match
Offsetted by 689:
01 [f25e9e9d] (05/16) Accurately ripped
02 [68078b87] (05/16) Accurately ripped
03 [1a665918] (05/16) Accurately ripped
04 [f8075cd8] (04/15) Accurately ripped
05 [c7d01c6a] (04/15) Accurately ripped
06 [d144813b] (05/16) Accurately ripped
07 [a6c48bda] (05/16) Accurately ripped
08 [37ed1752] (05/16) Accurately ripped
09 [402b7c68] (05/16) Accurately ripped
10 [45b1b740] (04/15) Accurately ripped
11 [f0a2e1b5] (04/15) Accurately ripped
12 [e7f562f9] (05/16) Accurately ripped
13 [17d77bff] (05/16) Accurately ripped

Track Peak [ CRC32 ] [W/O NULL] [ LOG ]
– 100,0 [E7F45362] [88B9EA5F] CRC32
01 100,0 [3013C2CB] [EC79BC65]
02 100,0 [25FAA32A] [8B1790EA]
03 94,9 [E955D590] [32A13D5A]
04 100,0 [30477BC1] [17E85BF4]
05 94,9 [EF5972BE] [160FD545]
06 99,9 [FFC7C949] [C8695AB3]
07 99,7 [A313A171] [B34BFDCB]
08 100,0 [D54DF5D2] [1DDD8F0C]
09 100,0 [5E252948] [FE8784F0]
10 90,6 [77B5B279] [08A63773]
11 100,0 [BA694F09] [1C3B4125]
12 99,9 [755EC65F] [96B8781F]
13 68,9 [CA2AF88F] [B6327B0F]

James Galway, Jay Ungar & Molly Mason - A Song Of Home: An American Musical Journey (2002)

James Galway, Jay Ungar & Molly Mason - A Song Of Home: An American Musical Journey (2002)

All thanks go to RD

> Visit my blog <

Download: