Subcategories

Jane Zhang - Listen to Jane Z Live (2012) [Blu-ray]

Posted By: juanchito
Jane Zhang - Listen to Jane Z Live (2012) [Blu-ray]

Jane Zhang - Listen to Jane Z Live (2012)
Blu-ray | BDMV | MPEG4 Video (H264) 1920x1080 23.976fps 25.0Mbps | 21.87 GB
Audio: DTS-HD MA 5.1 (96 kHz / 8658 kbps / 24-bit); Dolby TrueHD 5.1 (96 kHz / 8044 kbps / 24-bit);
DTS 2.0 (48 kHz / 768 kbps / 24-bit); Dolby Digital 2.0 (640 kbps) | Length: 01:10:59
Pop, Jazz Pop Vocals | Nitroflare/Uploadable/Filefactory


Zhang Liangying (simplified Chinese: 张靓颖; traditional Chinese: 張靚穎; pinyin: Zhāng Liàngyǐng;or Zhang Jinying; born October 11, 1984 in Chengdu, Sichuan), also known as Jane Zhang, is a Chinese pop singer. She rose to prominence after her third-place performance in the 2005 season of the Super Girl contest, a national all-female singing competition in the People's Republic of China. Throughout the competition, she sang in English, Spanish and Cantonese in addition to Mandarin Chinese. She is particularly known for her signature whistle register which earned her a nickname, "The Dolphin Princess".
All songs were sung and recorded live at Beijing Huasheng Tianqiao Theater in April 2012

Jane Zhang - Listen to Jane Z Live (2012) [Blu-ray]

Jane Zhang - Listen to Jane Z Live (2012) [Blu-ray]

Jane Zhang - Listen to Jane Z Live (2012) [Blu-ray]



Tracklist
01. Opening 2:04
02. At Last 3:14
03. Dream Field 3:33
04. I Didn't Know 5:01
05. Not So Easy 4:00
06. Song Dedicated to Mother (Woman Flower) 4:27
07. Por una Cabeza 3:45
08. Concerto pour une Voix 4:19
09. Singing In The Rain 4:16
10. Indifferent Love 5:19
11. Single 4:14
12. Autumn Concentration 5:45
13. The South Sea Girl 3:47
14. Letting Go 4:05
15. Until the End of the World 5:31

Disc Title: Jane Zhang - Listen to Jane Z Live
Disc Size: 23,483,838,386 bytes
Protection: AACS
BD-Java: No
BDInfo: 0.5.8

Notes:

BDINFO HOME:
Cinema Squid
http://www.cinemasquid.com/blu-ray/tools/bdinfo

INCLUDES FORUMS REPORT FOR:
AVS Forum Blu-ray Audio and Video Specifications Thread
http://www.avsforum.com/avs-vb/showthread.php?t=1155731

WARNING: Report is incomplete because: Scan has not been run.

********************
PLAYLIST: 00010.MPLS
********************

<–- BEGIN FORUMS PASTE –->
                                                                                                                Total   Video                                             
Title                                                           Codec   Length  Movie Size      Disc Size       Bitrate Bitrate Main Audio Track                          Secondary Audio Track
-----                                                           ------  ------- --------------  --------------  ------- ------- ------------------                        ---------------------
00010.MPLS                                                      AVC     1:10:59 0               23,483,838,386  0.00    0.00    DD AC3 2.0 640Kbps                        DTS 2.0 768Kbps (48kHz/24-bit)


DISC INFO:

Disc Title:     Jane Zhang - Listen to Jane Z Live
Disc Size:      23,483,838,386 bytes
Protection:     AACS
BD-Java:        No
BDInfo:         0.5.8

PLAYLIST REPORT:

Name:                   00010.MPLS
Length:                 1:10:59.964 (h:m:s.ms)
Size:                   0 bytes
Total Bitrate:          0.00 Mbps

VIDEO:

Codec                   Bitrate             Description     
-----                   -------             -----------     
MPEG-4 AVC Video        0 kbps              1080p / 23.976 fps / 16:9 / High Profile 4.1

AUDIO:

Codec                           Language        Bitrate         Description     
-----                           --------        -------         -----------     
Dolby Digital Audio             Chinese         640 kbps        2.0 / 48 kHz / 640 kbps
DTS Audio                       Chinese         768 kbps        2.0 / 48 kHz / 768 kbps / 24-bit
DTS-HD Master Audio             Chinese         0 kbps          5.1 / 96 kHz / 24-bit (DTS Core: 5.1 / 48 kHz / 1509 kbps / 24-bit)
Dolby TrueHD Audio              Chinese         0 kbps          5.1 / 96 kHz / 24-bit (AC3 Embedded: 5.1 / 48 kHz / 640 kbps)

SUBTITLES:

Codec                           Language        Bitrate         Description     
-----                           --------        -------         -----------     
Presentation Graphics           Chinese         0.000 kbps                      
Presentation Graphics           Chinese         0.000 kbps                      

FILES:

Name            Time In         Length          Size            Total Bitrate   
----            -------         ------          ----            -------------   
00008.M2TS      0:00:00.000     1:10:59.964     0               0               

CHAPTERS:

Number          Time In         Length          Avg Video Rate  Max 1-Sec Rate  Max 1-Sec Time  Max 5-Sec Rate  Max 5-Sec Time  Max 10Sec Rate  Max 10Sec Time  Avg Frame Size  Max Frame Size  Max Frame Time  
------          -------         ------          --------------  --------------  --------------  --------------  --------------  --------------  --------------  --------------  --------------  --------------  
1               0:00:00.000     0:02:25.145     0 kbps          0 kbps          00:00:00.000    0 kbps          00:00:00.000    0 kbps          00:00:00.000    0 bytes         0 bytes         00:00:00.000    
2               0:02:25.145     0:04:36.192     0 kbps          0 kbps          00:00:00.000    0 kbps          00:00:00.000    0 kbps          00:00:00.000    0 bytes         0 bytes         00:00:00.000    
3               0:07:01.337     0:03:39.427     0 kbps          0 kbps          00:00:00.000    0 kbps          00:00:00.000    0 kbps          00:00:00.000    0 bytes         0 bytes         00:00:00.000    
4               0:10:40.765     0:05:59.067     0 kbps          0 kbps          00:00:00.000    0 kbps          00:00:00.000    0 kbps          00:00:00.000    0 bytes         0 bytes         00:00:00.000    
5               0:16:39.832     0:04:35.692     0 kbps          0 kbps          00:00:00.000    0 kbps          00:00:00.000    0 kbps          00:00:00.000    0 bytes         0 bytes         00:00:00.000    
6               0:21:15.524     0:05:47.221     0 kbps          0 kbps          00:00:00.000    0 kbps          00:00:00.000    0 kbps          00:00:00.000    0 bytes         0 bytes         00:00:00.000    
7               0:27:02.746     0:03:48.436     0 kbps          0 kbps          00:00:00.000    0 kbps          00:00:00.000    0 kbps          00:00:00.000    0 bytes         0 bytes         00:00:00.000    
8               0:30:51.182     0:04:18.925     0 kbps          0 kbps          00:00:00.000    0 kbps          00:00:00.000    0 kbps          00:00:00.000    0 bytes         0 bytes         00:00:00.000    
9               0:35:10.107     0:04:15.254     0 kbps          0 kbps          00:00:00.000    0 kbps          00:00:00.000    0 kbps          00:00:00.000    0 bytes         0 bytes         00:00:00.000    
10              0:39:25.362     0:05:19.319     0 kbps          0 kbps          00:00:00.000    0 kbps          00:00:00.000    0 kbps          00:00:00.000    0 bytes         0 bytes         00:00:00.000    
11              0:44:44.681     0:04:16.255     0 kbps          0 kbps          00:00:00.000    0 kbps          00:00:00.000    0 kbps          00:00:00.000    0 bytes         0 bytes         00:00:00.000    
12              0:49:00.937     0:06:20.671     0 kbps          0 kbps          00:00:00.000    0 kbps          00:00:00.000    0 kbps          00:00:00.000    0 bytes         0 bytes         00:00:00.000    
13              0:55:21.609     0:03:51.940     0 kbps          0 kbps          00:00:00.000    0 kbps          00:00:00.000    0 kbps          00:00:00.000    0 bytes         0 bytes         00:00:00.000    
14              0:59:13.549     0:04:07.747     0 kbps          0 kbps          00:00:00.000    0 kbps          00:00:00.000    0 kbps          00:00:00.000    0 bytes         0 bytes         00:00:00.000    
15              1:03:21.297     0:07:37.665     0 kbps          0 kbps          00:00:00.000    0 kbps          00:00:00.000    0 kbps          00:00:00.000    0 bytes         0 bytes         00:00:00.000    
16              1:10:58.962     0:00:01.001     0 kbps          0 kbps          00:00:00.000    0 kbps          00:00:00.000    0 kbps          00:00:00.000    0 bytes         0 bytes         00:00:00.000    

STREAM DIAGNOSTICS:

File            PID             Type            Codec           Language                Seconds                 Bitrate                 Bytes           Packets         
----            ---             ----            -----           --------                --------------          --------------          -------------   -----           
00008.M2TS      4113 (0x1011)   0x1B            AVC                                     0                       0                       0               0               
00008.M2TS      4352 (0x1100)   0x81            AC3             zho (Chinese)           0                       0                       0               0               
00008.M2TS      4353 (0x1101)   0x82            DTS             zho (Chinese)           0                       0                       0               0               
00008.M2TS      4354 (0x1102)   0x83            TrueHD          zho (Chinese)           0                       0                       0               0               
00008.M2TS      4355 (0x1103)   0x86            DTS-HD MA       zho (Chinese)           0                       0                       0               0               
00008.M2TS      4608 (0x1200)   0x90            PGS             zho (Chinese)           0                       0                       0               0               
00008.M2TS      4609 (0x1201)   0x90            PGS             zho (Chinese)           0                       0                       0               0               

<–– END FORUMS PASTE ––>

QUICK SUMMARY:

Disc Title: Jane Zhang - Listen to Jane Z Live
Disc Size: 23,483,838,386 bytes
Protection: AACS
BD-Java: No
Playlist: 00010.MPLS
Size: 0 bytes
Length: 1:10:59.964
Total Bitrate: 0.00 Mbps
Video: MPEG-4 AVC Video / 0 kbps / 1080p / 23.976 fps / 16:9 / High Profile 4.1
Audio: Chinese / Dolby Digital Audio / 2.0 / 48 kHz / 640 kbps
Audio: Chinese / DTS Audio / 2.0 / 48 kHz / 768 kbps / 24-bit
Audio: Chinese / DTS-HD Master Audio / 5.1 / 96 kHz / 24-bit (DTS Core: 5.1 / 48 kHz / 1509 kbps / 24-bit)
Audio: Chinese / Dolby TrueHD Audio / 5.1 / 96 kHz / 24-bit (AC3 Embedded: 5.1 / 48 kHz / 640 kbps)
Subtitle: Chinese / 0.000 kbps
Subtitle: Chinese / 0.000 kbps


********************
PLAYLIST: 00006.MPLS
********************

<–- BEGIN FORUMS PASTE –->
                                                                                                                Total   Video                                             
Title                                                           Codec   Length  Movie Size      Disc Size       Bitrate Bitrate Main Audio Track                          Secondary Audio Track
-----                                                           ------  ------- --------------  --------------  ------- ------- ------------------                        ---------------------
00006.MPLS                                                      AVC     0:01:08 0               23,483,838,386  0.00    0.00    DD AC3 2.0 448Kbps                        


DISC INFO:

Disc Title:     Jane Zhang - Listen to Jane Z Live
Disc Size:      23,483,838,386 bytes
Protection:     AACS
BD-Java:        No
BDInfo:         0.5.8

PLAYLIST REPORT:

Name:                   00006.MPLS
Length:                 0:01:08.234 (h:m:s.ms)
Size:                   0 bytes
Total Bitrate:          0.00 Mbps

VIDEO:

Codec                   Bitrate             Description     
-----                   -------             -----------     
MPEG-4 AVC Video        0 kbps              1080p / 23.976 fps / 16:9 / High Profile 4.1

AUDIO:

Codec                           Language        Bitrate         Description     
-----                           --------        -------         -----------     
Dolby Digital Audio             Chinese         448 kbps        2.0 / 48 kHz / 448 kbps
Dolby Digital Audio             Chinese         448 kbps        2.0 / 48 kHz / 448 kbps
Dolby Digital Audio             Chinese         448 kbps        2.0 / 48 kHz / 448 kbps
Dolby Digital Audio             Chinese         448 kbps        2.0 / 48 kHz / 448 kbps

SUBTITLES:

Codec                           Language        Bitrate         Description     
-----                           --------        -------         -----------     
Presentation Graphics           Chinese         0.000 kbps                      
Presentation Graphics           Chinese         0.000 kbps                      
Interactive Graphics            Chinese         0.000 kbps                      

FILES:

Name            Time In         Length          Size            Total Bitrate   
----            -------         ------          ----            -------------   
00004.M2TS      0:00:00.000     0:01:08.234     0               0               

CHAPTERS:

Number          Time In         Length          Avg Video Rate  Max 1-Sec Rate  Max 1-Sec Time  Max 5-Sec Rate  Max 5-Sec Time  Max 10Sec Rate  Max 10Sec Time  Avg Frame Size  Max Frame Size  Max Frame Time  
------          -------         ------          --------------  --------------  --------------  --------------  --------------  --------------  --------------  --------------  --------------  --------------  
1               0:00:00.000     0:01:08.234     0 kbps          0 kbps          00:00:00.000    0 kbps          00:00:00.000    0 kbps          00:00:00.000    0 bytes         0 bytes         00:00:00.000    

STREAM DIAGNOSTICS:

File            PID             Type            Codec           Language                Seconds                 Bitrate                 Bytes           Packets         
----            ---             ----            -----           --------                --------------          --------------          -------------   -----           
00004.M2TS      4113 (0x1011)   0x1B            AVC                                     0                       0                       0               0               
00004.M2TS      4352 (0x1100)   0x81            AC3             zho (Chinese)           0                       0                       0               0               
00004.M2TS      4353 (0x1101)   0x81            AC3             zho (Chinese)           0                       0                       0               0               
00004.M2TS      4354 (0x1102)   0x81            AC3             zho (Chinese)           0                       0                       0               0               
00004.M2TS      4355 (0x1103)   0x81            AC3             zho (Chinese)           0                       0                       0               0               
00004.M2TS      4608 (0x1200)   0x90            PGS             zho (Chinese)           0                       0                       0               0               
00004.M2TS      4609 (0x1201)   0x90            PGS             zho (Chinese)           0                       0                       0               0               
00004.M2TS      5120 (0x1400)   0x91            IGS             zho (Chinese)           0                       0                       0               0               

<–– END FORUMS PASTE ––>

QUICK SUMMARY:

Disc Title: Jane Zhang - Listen to Jane Z Live
Disc Size: 23,483,838,386 bytes
Protection: AACS
BD-Java: No
Playlist: 00006.MPLS
Size: 0 bytes
Length: 0:01:08.234
Total Bitrate: 0.00 Mbps
Video: MPEG-4 AVC Video / 0 kbps / 1080p / 23.976 fps / 16:9 / High Profile 4.1
Audio: Chinese / Dolby Digital Audio / 2.0 / 48 kHz / 448 kbps
Audio: Chinese / Dolby Digital Audio / 2.0 / 48 kHz / 448 kbps
Audio: Chinese / Dolby Digital Audio / 2.0 / 48 kHz / 448 kbps
Audio: Chinese / Dolby Digital Audio / 2.0 / 48 kHz / 448 kbps
Subtitle: Chinese / 0.000 kbps
Subtitle: Chinese / 0.000 kbps
Subtitle: Chinese / 0.000 kbps


********************
PLAYLIST: 00009.MPLS
********************

<–- BEGIN FORUMS PASTE –->
                                                                                                                Total   Video                                             
Title                                                           Codec   Length  Movie Size      Disc Size       Bitrate Bitrate Main Audio Track                          Secondary Audio Track
-----                                                           ------  ------- --------------  --------------  ------- ------- ------------------                        ---------------------
00009.MPLS                                                      AVC     0:00:48 0               23,483,838,386  0.00    0.00    DD AC3 2.0 448Kbps                        


DISC INFO:

Disc Title:     Jane Zhang - Listen to Jane Z Live
Disc Size:      23,483,838,386 bytes
Protection:     AACS
BD-Java:        No
BDInfo:         0.5.8

PLAYLIST REPORT:

Name:                   00009.MPLS
Length:                 0:00:48.673 (h:m:s.ms)
Size:                   0 bytes
Total Bitrate:          0.00 Mbps

VIDEO:

Codec                   Bitrate             Description     
-----                   -------             -----------     
MPEG-4 AVC Video        0 kbps              1080p / 23.976 fps / 16:9 / High Profile 4.1

AUDIO:

Codec                           Language        Bitrate         Description     
-----                           --------        -------         -----------     
Dolby Digital Audio             Chinese         448 kbps        2.0 / 48 kHz / 448 kbps
Dolby Digital Audio             Chinese         448 kbps        2.0 / 48 kHz / 448 kbps
Dolby Digital Audio             Chinese         448 kbps        2.0 / 48 kHz / 448 kbps
Dolby Digital Audio             Chinese         448 kbps        2.0 / 48 kHz / 448 kbps

SUBTITLES:

Codec                           Language        Bitrate         Description     
-----                           --------        -------         -----------     
Presentation Graphics           Chinese         0.000 kbps                      
Presentation Graphics           Chinese         0.000 kbps                      
Interactive Graphics            Chinese         0.000 kbps                      

FILES:

Name            Time In         Length          Size            Total Bitrate   
----            -------         ------          ----            -------------   
00007.M2TS      0:00:00.000     0:00:48.673     0               0               

CHAPTERS:

Number          Time In         Length          Avg Video Rate  Max 1-Sec Rate  Max 1-Sec Time  Max 5-Sec Rate  Max 5-Sec Time  Max 10Sec Rate  Max 10Sec Time  Avg Frame Size  Max Frame Size  Max Frame Time  
------          -------         ------          --------------  --------------  --------------  --------------  --------------  --------------  --------------  --------------  --------------  --------------  
1               0:00:00.000     0:00:48.673     0 kbps          0 kbps          00:00:00.000    0 kbps          00:00:00.000    0 kbps          00:00:00.000    0 bytes         0 bytes         00:00:00.000    

STREAM DIAGNOSTICS:

File            PID             Type            Codec           Language                Seconds                 Bitrate                 Bytes           Packets         
----            ---             ----            -----           --------                --------------          --------------          -------------   -----           
00007.M2TS      4113 (0x1011)   0x1B            AVC                                     0                       0                       0               0               
00007.M2TS      4352 (0x1100)   0x81            AC3             zho (Chinese)           0                       0                       0               0               
00007.M2TS      4353 (0x1101)   0x81            AC3             zho (Chinese)           0                       0                       0               0               
00007.M2TS      4354 (0x1102)   0x81            AC3             zho (Chinese)           0                       0                       0               0               
00007.M2TS      4355 (0x1103)   0x81            AC3             zho (Chinese)           0                       0                       0               0               
00007.M2TS      4608 (0x1200)   0x90            PGS             zho (Chinese)           0                       0                       0               0               
00007.M2TS      4609 (0x1201)   0x90            PGS             zho (Chinese)           0                       0                       0               0               
00007.M2TS      5120 (0x1400)   0x91            IGS             zho (Chinese)           0                       0                       0               0               

<–– END FORUMS PASTE ––>

QUICK SUMMARY:

Disc Title: Jane Zhang - Listen to Jane Z Live
Disc Size: 23,483,838,386 bytes
Protection: AACS
BD-Java: No
Playlist: 00009.MPLS
Size: 0 bytes
Length: 0:00:48.673
Total Bitrate: 0.00 Mbps
Video: MPEG-4 AVC Video / 0 kbps / 1080p / 23.976 fps / 16:9 / High Profile 4.1
Audio: Chinese / Dolby Digital Audio / 2.0 / 48 kHz / 448 kbps
Audio: Chinese / Dolby Digital Audio / 2.0 / 48 kHz / 448 kbps
Audio: Chinese / Dolby Digital Audio / 2.0 / 48 kHz / 448 kbps
Audio: Chinese / Dolby Digital Audio / 2.0 / 48 kHz / 448 kbps
Subtitle: Chinese / 0.000 kbps
Subtitle: Chinese / 0.000 kbps
Subtitle: Chinese / 0.000 kbps


********************
PLAYLIST: 00007.MPLS
********************

<–- BEGIN FORUMS PASTE –->
                                                                                                                Total   Video                                             
Title                                                           Codec   Length  Movie Size      Disc Size       Bitrate Bitrate Main Audio Track                          Secondary Audio Track
-----                                                           ------  ------- --------------  --------------  ------- ------- ------------------                        ---------------------
00007.MPLS                                                      AVC     0:00:34 0               23,483,838,386  0.00    0.00    DD AC3 2.0 448Kbps                        


DISC INFO:

Disc Title:     Jane Zhang - Listen to Jane Z Live
Disc Size:      23,483,838,386 bytes
Protection:     AACS
BD-Java:        No
BDInfo:         0.5.8

PLAYLIST REPORT:

Name:                   00007.MPLS
Length:                 0:00:34.701 (h:m:s.ms)
Size:                   0 bytes
Total Bitrate:          0.00 Mbps

VIDEO:

Codec                   Bitrate             Description     
-----                   -------             -----------     
MPEG-4 AVC Video        0 kbps              1080p / 23.976 fps / 16:9 / High Profile 4.1

AUDIO:

Codec                           Language        Bitrate         Description     
-----                           --------        -------         -----------     
Dolby Digital Audio             Chinese         448 kbps        2.0 / 48 kHz / 448 kbps
Dolby Digital Audio             Chinese         448 kbps        2.0 / 48 kHz / 448 kbps
Dolby Digital Audio             Chinese         448 kbps        2.0 / 48 kHz / 448 kbps
Dolby Digital Audio             Chinese         448 kbps        2.0 / 48 kHz / 448 kbps

SUBTITLES:

Codec                           Language        Bitrate         Description     
-----                           --------        -------         -----------     
Presentation Graphics           Chinese         0.000 kbps                      
Presentation Graphics           Chinese         0.000 kbps                      
Interactive Graphics            Chinese         0.000 kbps                      

FILES:

Name            Time In         Length          Size            Total Bitrate   
----            -------         ------          ----            -------------   
00005.M2TS      0:00:00.000     0:00:34.701     0               0               

CHAPTERS:

Number          Time In         Length          Avg Video Rate  Max 1-Sec Rate  Max 1-Sec Time  Max 5-Sec Rate  Max 5-Sec Time  Max 10Sec Rate  Max 10Sec Time  Avg Frame Size  Max Frame Size  Max Frame Time  
------          -------         ------          --------------  --------------  --------------  --------------  --------------  --------------  --------------  --------------  --------------  --------------  
1               0:00:00.000     0:00:34.701     0 kbps          0 kbps          00:00:00.000    0 kbps          00:00:00.000    0 kbps          00:00:00.000    0 bytes         0 bytes         00:00:00.000    

STREAM DIAGNOSTICS:

File            PID             Type            Codec           Language                Seconds                 Bitrate                 Bytes           Packets         
----   			  		 	 	  		 	    	 			   		   	  		 		   		  	   	 			   		   	  		 	 	  	 			   		  		  		   				          ---             ----            -----           --------                --------------          --------------          -------------   -----           
00005.M2TS      4113 (0x1011)   0x1B            AVC                                     0                       0                       0               0               
00005.M2TS      4352 (0x1100)   0x81            AC3             zho (Chinese)           0                       0                       0               0               
00005.M2TS      4353 (0x1101)   0x81            AC3             zho (Chinese)           0                       0                       0               0               
00005.M2TS      4354 (0x1102)   0x81            AC3             zho (Chinese)           0                       0                       0               0               
00005.M2TS      4355 (0x1103)   0x81            AC3             zho (Chinese)           0                       0                       0               0               
00005.M2TS      4608 (0x1200)   0x90            PGS             zho (Chinese)           0                       0                       0               0               
00005.M2TS      4609 (0x1201)   0x90            PGS             zho (Chinese)           0                       0                       0               0               
00005.M2TS      5120 (0x1400)   0x91            IGS             zho (Chinese)           0                       0                       0               0               

<–– END FORUMS PASTE ––>

QUICK SUMMARY:

Disc Title: Jane Zhang - Listen to Jane Z Live
Disc Size: 23,483,838,386 bytes
Protection: AACS
BD-Java: No
Playlist: 00007.MPLS
Size: 0 bytes
Length: 0:00:34.701
Total Bitrate: 0.00 Mbps
Video: MPEG-4 AVC Video / 0 kbps / 1080p / 23.976 fps / 16:9 / High Profile 4.1
Audio: Chinese / Dolby Digital Audio / 2.0 / 48 kHz / 448 kbps
Audio: Chinese / Dolby Digital Audio / 2.0 / 48 kHz / 448 kbps
Audio: Chinese / Dolby Digital Audio / 2.0 / 48 kHz / 448 kbps
Audio: Chinese / Dolby Digital Audio / 2.0 / 48 kHz / 448 kbps
Subtitle: Chinese / 0.000 kbps
Subtitle: Chinese / 0.000 kbps
Subtitle: Chinese / 0.000 kbps


********************
PLAYLIST: 00008.MPLS
********************

<–- BEGIN FORUMS PASTE –->
                                                                                                                Total   Video                                             
Title                                                           Codec   Length  Movie Size      Disc Size       Bitrate Bitrate Main Audio Track                          Secondary Audio Track
-----                                                           ------  ------- --------------  --------------  ------- ------- ------------------                        ---------------------
00008.MPLS                                                      AVC     0:00:30 0               23,483,838,386  0.00    0.00    DD AC3 2.0 448Kbps                        


DISC INFO:

Disc Title:     Jane Zhang - Listen to Jane Z Live
Disc Size:      23,483,838,386 bytes
Protection:     AACS
BD-Java:        No
BDInfo:         0.5.8

PLAYLIST REPORT:

Name:                   00008.MPLS
Length:                 0:00:30.739 (h:m:s.ms)
Size:                   0 bytes
Total Bitrate:          0.00 Mbps

VIDEO:

Codec                   Bitrate             Description     
-----                   -------             -----------     
MPEG-4 AVC Video        0 kbps              1080p / 23.976 fps / 16:9 / High Profile 4.1

AUDIO:

Codec                           Language        Bitrate         Description     
-----                           --------        -------         -----------     
Dolby Digital Audio             Chinese         448 kbps        2.0 / 48 kHz / 448 kbps
Dolby Digital Audio             Chinese         448 kbps        2.0 / 48 kHz / 448 kbps
Dolby Digital Audio             Chinese         448 kbps        2.0 / 48 kHz / 448 kbps
Dolby Digital Audio             Chinese         448 kbps        2.0 / 48 kHz / 448 kbps

SUBTITLES:

Codec                           Language        Bitrate         Description     
-----                           --------        -------         -----------     
Presentation Graphics           Chinese         0.000 kbps                      
Presentation Graphics           Chinese         0.000 kbps                      
Interactive Graphics            Chinese         0.000 kbps                      

FILES:

Name            Time In         Length          Size            Total Bitrate   
----            -------         ------          ----            -------------   
00006.M2TS      0:00:00.000     0:00:30.739     0               0               

CHAPTERS:

Number          Time In         Length          Avg Video Rate  Max 1-Sec Rate  Max 1-Sec Time  Max 5-Sec Rate  Max 5-Sec Time  Max 10Sec Rate  Max 10Sec Time  Avg Frame Size  Max Frame Size  Max Frame Time  
------          -------         ------          --------------  --------------  --------------  --------------  --------------  --------------  --------------  --------------  --------------  --------------  
1               0:00:00.000     0:00:30.739     0 kbps          0 kbps          00:00:00.000    0 kbps          00:00:00.000    0 kbps          00:00:00.000    0 bytes         0 bytes         00:00:00.000    

STREAM DIAGNOSTICS:

File            PID             Type            Codec           Language                Seconds                 Bitrate                 Bytes           Packets         
----            ---             ----            -----           --------                --------------          --------------          -------------   -----           
00006.M2TS      4113 (0x1011)   0x1B            AVC                                     0                       0                       0               0               
00006.M2TS      4352 (0x1100)   0x81            AC3             zho (Chinese)           0                       0                       0               0               
00006.M2TS      4353 (0x1101)   0x81            AC3             zho (Chinese)           0                       0                       0               0               
00006.M2TS      4354 (0x1102)   0x81            AC3             zho (Chinese)           0                       0                       0               0               
00006.M2TS      4355 (0x1103)   0x81            AC3             zho (Chinese)           0                       0                       0               0               
00006.M2TS      4608 (0x1200)   0x90            PGS             zho (Chinese)           0                       0                       0               0               
00006.M2TS      4609 (0x1201)   0x90            PGS             zho (Chinese)           0                       0                       0               0               
00006.M2TS      5120 (0x1400)   0x91            IGS             zho (Chinese)           0                       0                       0               0               

<–– END FORUMS PASTE ––>

QUICK SUMMARY:

Disc Title: Jane Zhang - Listen to Jane Z Live
Disc Size: 23,483,838,386 bytes
Protection: AACS
BD-Java: No
Playlist: 00008.MPLS
Size: 0 bytes
Length: 0:00:30.739
Total Bitrate: 0.00 Mbps
Video: MPEG-4 AVC Video / 0 kbps / 1080p / 23.976 fps / 16:9 / High Profile 4.1
Audio: Chinese / Dolby Digital Audio / 2.0 / 48 kHz / 448 kbps
Audio: Chinese / Dolby Digital Audio / 2.0 / 48 kHz / 448 kbps
Audio: Chinese / Dolby Digital Audio / 2.0 / 48 kHz / 448 kbps
Audio: Chinese / Dolby Digital Audio / 2.0 / 48 kHz / 448 kbps
Subtitle: Chinese / 0.000 kbps
Subtitle: Chinese / 0.000 kbps
Subtitle: Chinese / 0.000 kbps


********************
PLAYLIST: 00011.MPLS
********************

<–- BEGIN FORUMS PASTE –->
                                                                                                                Total   Video                                             
Title                                                           Codec   Length  Movie Size      Disc Size       Bitrate Bitrate Main Audio Track                          Secondary Audio Track
-----                                                           ------  ------- --------------  --------------  ------- ------- ------------------                        ---------------------
00011.MPLS                                                      MPEG-2  0:00:30 0               23,483,838,386  0.00    0.00    DD AC3 2.0 448Kbps                        


DISC INFO:

Disc Title:     Jane Zhang - Listen to Jane Z Live
Disc Size:      23,483,838,386 bytes
Protection:     AACS
BD-Java:        No
BDInfo:         0.5.8

PLAYLIST REPORT:

Name:                   00011.MPLS
Length:                 0:00:30.230 (h:m:s.ms)
Size:                   0 bytes
Total Bitrate:          0.00 Mbps

VIDEO:

Codec                   Bitrate             Description     
-----                   -------             -----------     
MPEG-2 Video            0 kbps              480i / 29.970 fps / 16:9

AUDIO:

Codec                           Language        Bitrate         Description     
-----                           --------        -------         -----------     
Dolby Digital Audio             Chinese         448 kbps        2.0 / 48 kHz / 448 kbps

FILES:

Name            Time In         Length          Size            Total Bitrate   
----            -------         ------          ----            -------------   
00009.M2TS      0:00:00.000     0:00:30.230     0               0               

CHAPTERS:

Number          Time In         Length          Avg Video Rate  Max 1-Sec Rate  Max 1-Sec Time  Max 5-Sec Rate  Max 5-Sec Time  Max 10Sec Rate  Max 10Sec Time  Avg Frame Size  Max Frame Size  Max Frame Time  
------          -------         ------          --------------  --------------  --------------  --------------  --------------  --------------  --------------  --------------  --------------  --------------  
1               0:00:00.000     0:00:30.230     0 kbps          0 kbps          00:00:00.000    0 kbps          00:00:00.000    0 kbps          00:00:00.000    0 bytes         0 bytes         00:00:00.000    

STREAM DIAGNOSTICS:

File            PID             Type            Codec           Language                Seconds                 Bitrate                 Bytes           Packets         
----            ---             ----            -----           --------                --------------          --------------          -------------   -----           
00009.M2TS      4113 (0x1011)   0x02            MPEG-2                                  0                       0                       0               0               
00009.M2TS      4352 (0x1100)   0x81            AC3             zho (Chinese)           0                       0                       0               0               

<–– END FORUMS PASTE ––>

QUICK SUMMARY:

Disc Title: Jane Zhang - Listen to Jane Z Live
Disc Size: 23,483,838,386 bytes
Protection: AACS
BD-Java: No
Playlist: 00011.MPLS
Size: 0 bytes
Length: 0:00:30.230
Total Bitrate: 0.00 Mbps
Video: MPEG-2 Video / 0 kbps / 480i / 29.970 fps / 16:9
Audio: Chinese / Dolby Digital Audio / 2.0 / 48 kHz / 448 kbps


Thanks to the original uploader