Janis Ian - Between The Lines (1975) Remastered 2003

Posted By: Designol
Janis Ian - Between The Lines (1975) Remastered 2003

Janis Ian - Between The Lines (1975) Remastered 2003
EAC | APE | Image (Cue&Log) ~ 281 Mb (incl 5%) | Mp3 (CBR320) ~ 121 Mb (incl 5%) | Scans ~ 120 Mb
Genre: Singer/Songwriter, Soft Rock, Folk Rock | Label: Cooking Vinyl | # COOKCD 271 | Time: 00:50:28

Between the Lines, released in 1975 and containing the popular song "At Seventeen", is the best-known album by the then New York-based singer-songwriter Janis Ian. The album reached #1 on the Billboard album chart in September 1975, and sold 1.9 million copies in the United States. "At Seventeen" was released as a single and reached #3 on the Billboard Hot 100 and #1 on the Adult Contemporary chart. Ian won the 1975 Grammy Award for Best Female Pop Vocal Performance for the song, and performed it on the first episode of Saturday Night Live on October 11, 1975.

This is Janis Ian's second album from her re-emergence in the early to mid-'70s as one of the genre's most inspired and original singer/songwriters. While this title houses Ian's biggest international hit, the confessional "At Seventeen," the entire effort combines her honest and confessional lyrics with an equally engaging blend of pop/rock and definite jazz and blues. She assembled much of the same ensemble that had worked on her previous long-player, Stars (1975), and much of the material retains the same warmth and intimacy in both her craft as well as the presentation. Unlike the more somber and introverted tracks that dominate Between the Lines (1975), the disc commences with a prime example of Ian's infectious coziness on the light and airy "When the Party's Over." This is one of the title's more straightforward love songs and features an appropriately lilting counter-harmony from Dennis Pereca. More typical are the somewhat dark and oblique "From Me to You," "The Come On," and the despairing title track. Darker still are "In the Winter" and the abject loneliness of "Tea and Sympathy" – both of which feature some engaging arrangements courtesy of famed arranger/conductor Ron Frangipane, whose clients include Melanie and Townes Van Zandt as well as both John Lennon and Yoko Ono. Underlying the heady orchestration and truly at the center of Ian's skill are her emotively powerful yet reserved melodies. This was undoubtedly a factor in "At Seventeen" becoming a Grammy winner as well as a chart-topping single stateside and a Top 20 hit throughout much of Europe as well as more disparate locations such as Israel. The strength of material and public interest garnered by Between the Lines would continue on her next equally powerful long-player, Aftertones (1976). This album is a recommended starting point for potential enthusiasts, as well as a touchstone to be repeatedly revisited.

Review by Lindsay Planer, Allmusic.com

Janis Ian - Between The Lines (1975) Remastered 2003



Tracklist:

01. When The Part's Over (03:00)
02. At Seventeen (04:43)
03. From Me To You (03:20)
04. Bright Lights And Promises (04:19)
05. In The Winter (02:32)
06. Watercolors (05:06)
07. Between The Lines (04:04)
08. The Come On (04:00)
09. Light A Light (02:47)
10. Tea And Sympathy (04:32)
11. Lover's Lullaby (05:31)
12. Between the Lines [Live Bonus Track] (06:28)


Exact Audio Copy V0.99 prebeta 4 from 23. January 2008

Отчёт EAC об извлечении, выполненном 26. мая 2009, 12:26

Janis Ian / Between the Lines

Дисковод: LITE-ON DVDRW LH-20A1H Adapter: 0 ID: 0

Режим чтения : Достоверность
Использование точного потока : Да
Отключение кэша аудио : Да
Использование указателей C2 : Нет

Коррекция смещения при чтении : 6
Способность читать области Lead-in и Lead-out : Нет
Заполнение пропущенных сэмплов тишиной : Да
Удаление блоков с тишиной в начале и конце : Нет
При вычислениях CRC использовались нулевые сэмплы : Да
Интерфейс : Установленный внешний ASPI-интерфейс

Выходной формат : Внутренние WAV-операции
Формат сэмплов : 44.100 Гц; 16 бит; стерео


TOC извлечённого CD

Трек | Старт | Длительность | Начальный сектор | Конечный сектор
––––––––––––––––––––––––––––––––––-
1 | 0:00.00 | 3:00.63 | 0 | 13562
2 | 3:00.63 | 4:43.56 | 13563 | 34843
3 | 7:44.44 | 3:20.22 | 34844 | 49865
4 | 11:04.66 | 4:19.58 | 49866 | 69348
5 | 15:24.49 | 2:32.36 | 69349 | 80784
6 | 17:57.10 | 5:06.64 | 80785 | 103798
7 | 23:03.74 | 4:04.46 | 103799 | 122144
8 | 27:08.45 | 4:00.18 | 122145 | 140162
9 | 31:08.63 | 2:47.64 | 140163 | 152751
10 | 33:56.52 | 4:32.42 | 152752 | 173193
11 | 38:29.19 | 5:31.39 | 173194 | 198057
12 | 44:00.58 | 6:28.08 | 198058 | 227165


Характеристики диапазона извлечения и сообщения об ошибках

Выбранный диапазон

Имя файла G:\RAB\Janis Ian\Janis Ian - Between the Lines.wav

Пиковый уровень 99.8 %
Качество диапазона 100.0 %
CRC теста F42B5FCC
CRC копии F42B5FCC
Копирование… OK

Ошибок не произошло


AccurateRip: сводка

Трек 1 точное извлечение (доверие 2) [099AB2D6]
Трек 2 точное извлечение (доверие 2) [FD1DBBCA]
Трек 3 точное извлечение (доверие 2) [087AD128]
Трек 4 точное извлечение (доверие 2) [F305DDF5]
Трек 5 точное извлечение (доверие 2) [F8A24A07]
Трек 6 точное извлечение (доверие 2) [E169D8EB]
Трек 7 точное извлечение (доверие 2) [99C44745]
Трек 8 точное извлечение (доверие 2) [F50C84A6]
Трек 9 точное извлечение (доверие 2) [EF8F66DF]
Трек 10 точное извлечение (доверие 2) [FDBA0174]
Трек 11 точное извлечение (доверие 2) [274C16A8]
Трек 12 точное извлечение (доверие 2) [59C283BF]

Все треки извлечены точно

Конец отчёта

[CUETools log; Date: 23.12.2015 19:49:35; Version: 2.1.4]
[CTDB TOCID: nGcUDsStxNpW77ViF_WYt2xLA_w-] found.
Track | CTDB Status
1 | (2/2) Accurately ripped
2 | (2/2) Accurately ripped
3 | (2/2) Accurately ripped
4 | (2/2) Accurately ripped
5 | (2/2) Accurately ripped
6 | (2/2) Accurately ripped
7 | (2/2) Accurately ripped
8 | (2/2) Accurately ripped
9 | (2/2) Accurately ripped
10 | (2/2) Accurately ripped
11 | (2/2) Accurately ripped
12 | (2/2) Accurately ripped
[AccurateRip ID: 0014d6b4-00c4b0c2-9e0bd40c] found.
Track [ CRC | V2 ] Status
01 [099ab2d6|1670c57e] (04+03/29) Accurately ripped
02 [fd1dbbca|a4629ddf] (04+03/29) Accurately ripped
03 [087ad128|29a95c6f] (04+03/29) Accurately ripped
04 [f305ddf5|c0992ce5] (04+03/30) Accurately ripped
05 [f8a24a07|50171a76] (04+03/30) Accurately ripped
06 [e169d8eb|7f91feb5] (04+03/30) Accurately ripped
07 [99c44745|ce37fb97] (04+03/30) Accurately ripped
08 [f50c84a6|fb601101] (04+03/30) Accurately ripped
09 [ef8f66df|e0526768] (04+03/29) Accurately ripped
10 [fdba0174|0d037e87] (04+03/30) Accurately ripped
11 [274c16a8|894c6deb] (04+03/30) Accurately ripped
12 [59c283bf|9cd71c9d] (04+03/29) Accurately ripped
Offsetted by 18:
01 [8e5e5832] (04/29) Accurately ripped
02 [e9b93d22] (04/29) Accurately ripped
03 [36f3f1aa] (04/29) Accurately ripped
04 [b5af857f] (05/30) Accurately ripped
05 [dfa731ab] (05/30) Accurately ripped
06 [45be99b1] (05/30) Accurately ripped
07 [ed8c33e1] (05/30) Accurately ripped
08 [77f8b49a] (05/30) Accurately ripped
09 [9f367bc3] (04/29) Accurately ripped
10 [85ae301a] (05/30) Accurately ripped
11 [0b1c5cf8] (05/30) Accurately ripped
12 [fe43681b] (04/29) Accurately ripped
Offsetted by 552:
01 [9bb52c86] (04/29) Accurately ripped
02 [ffbe8faa] (04/29) Accurately ripped
03 [4452b610] (04/29) Accurately ripped
04 [ef589a7d] (04/30) Accurately ripped
05 [a538b457] (04/30) Accurately ripped
06 [3b90f0a3] (04/30) Accurately ripped
07 [4db749f5] (04/30) Accurately ripped
08 [a4024336] (04/30) Accurately ripped
09 [a4e8922f] (04/29) Accurately ripped
10 [46fa42ac] (04/30) Accurately ripped
11 [719482e8] (04/30) Accurately ripped
12 [0e88896f] (04/29) Accurately ripped
Offsetted by 677:
01 [d220454c] (03/29) Accurately ripped
02 [074bcac6] (03/29) Accurately ripped
03 [237f6d25] (03/29) Accurately ripped
04 [28f2c266] (03/30) Accurately ripped
05 [bedac411] (03/30) Accurately ripped
06 [ad32d602] (03/30) Accurately ripped
07 [5aa3a6db] (03/30) Accurately ripped
08 [b1319038] (03/30) Accurately ripped
09 [da7f1509] (03/29) Accurately ripped
10 [cc6f4dbb] (03/30) Accurately ripped
11 [1f9e6b30] (03/30) Accurately ripped
12 [af95d7b5] (03/29) Accurately ripped

Track Peak [ CRC32 ] [W/O NULL] [ LOG ]
– 99,8 [F42B5FCC] [10F733DD] CRC32
01 96,5 [1CB8D79C] [77198513]
02 96,5 [0AE477C4] [D3D92BA7]
03 96,5 [4D6932D0] [A516D7E4]
04 96,5 [5C5948E7] [291C18BC]
05 96,5 [4CBFDE9B] [8B84AB44]
06 96,5 [9C785BD6] [9D459CEB]
07 96,6 [7956F651] [AE1A1282]
08 96,5 [D2CD1F68] [DD62A994]
09 96,5 [454C6991] [E38D4552]
10 96,5 [A6137FAC] [1C51E15A]
11 96,5 [DC5D6D3A] [865CCD5B]
12 99,8 [87EFC10A] [D9685CE7]

foobar2000 1.2 / Dynamic Range Meter 1.1.1
log date: 2015-12-23 20:01:11

––––––––––––––––––––––––––––––––––––––––
Analyzed: Janis Ian / Between the Lines
––––––––––––––––––––––––––––––––––––––––

DR Peak RMS Duration Track
––––––––––––––––––––––––––––––––––––––––
DR9 -0.30 dB -12.03 dB 3:01 01-When The Part's Over
DR11 -0.30 dB -13.32 dB 4:44 02-At Seventeen
DR11 -0.30 dB -13.92 dB 3:20 03-From Me To You
DR11 -0.30 dB -14.48 dB 4:20 04-Bright Lights And Promises
DR9 -0.30 dB -11.99 dB 2:32 05-In The Winter
DR11 -0.30 dB -15.33 dB 5:07 06-Watercolors
DR11 -0.30 dB -14.13 dB 4:05 07-Between The Lines
DR13 -0.30 dB -17.19 dB 4:00 08-The Come On
DR11 -0.30 dB -13.56 dB 2:48 09-Light A Light
DR12 -0.30 dB -15.31 dB 4:33 10-Tea And Sympathy
DR9 -0.30 dB -13.39 dB 5:32 11-Lover's Lullaby
DR10 -0.01 dB -15.80 dB 6:28 12-Between the Lines [Live Bonus Track]
––––––––––––––––––––––––––––––––––––––––

Number of tracks: 12
Official DR value: DR11

Samplerate: 44100 Hz
Channels: 2
Bits per sample: 16
Bitrate: 741 kbps
Codec: Monkey's Audio
================================================================================

Janis Ian - Between The Lines (1975) Remastered 2003

Janis Ian - Between The Lines (1975) Remastered 2003

All thanks to original releaser - Siv6228

More interesting music in My Blog