Janis Ian - Breaking Silence (1993) Reissue 2003, Audiophile Edition

Posted By: Designol
Janis Ian - Breaking Silence (1993) Reissue 2003, Audiophile Edition

Janis Ian - Breaking Silence (1993) Reissue 2003, Audiophile Edition
EAC | APE | Image (Cue&Log) ~ 338 Mb (incl 5%) | Mp3 (CBR320) ~ 143 Mb (incl 5%) | Scans ~ 69 Mb
Genre: Singer/Songwriter, Folk Rock, Soft Rock | Label: Cooking Vinyl | # COOKCD 272 | Time: 00:59:29

Breaking Silence finds Ian ditching her past waifishness for a confident, mature, contemporary acoustic approach relying mostly on spare guitar and piano textures. Opening with "All Roads to the River" (also recorded by John Mellencamp), Breaking Silence includes among its highlights the Holocaust-survivor tale "Tattoo" and the dramatic half-a cappella, half-syncopated-rocker title track.

Review by Roch Parisien, Allmusic.com

Janis Ian - Breaking Silence (1993) Reissue 2003, Audiophile Edition



Tracklist:

01. All Roads To The River (03:05)
02. Ride Me Like A Wave (03:40)
03. Tattoo (04:20)
04. Guess You Had To Be There (04:07)
05. What About The Love (04:58)
06. His Hands (05:17)
07. Walking On Sacred Ground (03:26)
08. This Train Still Runs (04:04)
09. Through The Years (03:40)
10. This House (05:05)
11. Some Peopleґs Lives (03:52)
12. Breaking Silence (03:13)
13. Ride Me Like A Wave-Wet Mix (06:00)
14. This Train Still Runs (Live) (04:37)


Exact Audio Copy V0.99 prebeta 4 from 23. January 2008

Отчёт EAC об извлечении, выполненном 26. мая 2009, 13:41

Janis Ian / Breaking Silnece

Дисковод: LITE-ON DVDRW LH-20A1H Adapter: 0 ID: 0

Режим чтения : Достоверность
Использование точного потока : Да
Отключение кэша аудио : Да
Использование указателей C2 : Нет

Коррекция смещения при чтении : 6
Способность читать области Lead-in и Lead-out : Нет
Заполнение пропущенных сэмплов тишиной : Да
Удаление блоков с тишиной в начале и конце : Нет
При вычислениях CRC использовались нулевые сэмплы : Да
Интерфейс : Установленный внешний ASPI-интерфейс

Выходной формат : Внутренние WAV-операции
Формат сэмплов : 44.100 Гц; 16 бит; стерео


TOC извлечённого CD

Трек | Старт | Длительность | Начальный сектор | Конечный сектор
––––––––––––––––––––––––––––––––––-
1 | 0:00.00 | 3:05.50 | 0 | 13924
2 | 3:05.50 | 3:40.23 | 13925 | 30447
3 | 6:45.73 | 4:20.03 | 30448 | 49950
4 | 11:06.01 | 4:07.14 | 49951 | 68489
5 | 15:13.15 | 4:58.43 | 68490 | 90882
6 | 20:11.58 | 5:17.05 | 90883 | 114662
7 | 25:28.63 | 3:26.09 | 114663 | 130121
8 | 28:54.72 | 4:04.11 | 130122 | 148432
9 | 32:59.08 | 3:40.49 | 148433 | 164981
10 | 36:39.57 | 5:05.41 | 164982 | 187897
11 | 41:45.23 | 3:52.40 | 187898 | 205337
12 | 45:37.63 | 3:13.21 | 205338 | 219833
13 | 48:51.09 | 6:00.58 | 219834 | 246891
14 | 54:51.67 | 4:37.49 | 246892 | 267715


Характеристики диапазона извлечения и сообщения об ошибках

Выбранный диапазон

Имя файла G:\RAB\Janis Ian-breaking silence\Janis Ian - Breaking Silnece.wav

Пиковый уровень 99.8 %
Качество диапазона 100.0 %
CRC теста 4F1F6E0E
CRC копии 4F1F6E0E
Копирование… OK

Ошибок не произошло


AccurateRip: сводка

Трек 1 точное извлечение (доверие 7) [F310AED1]
Трек 2 точное извлечение (доверие 7) [33DB035D]
Трек 3 точное извлечение (доверие 7) [8BAE1994]
Трек 4 точное извлечение (доверие 7) [9424A022]
Трек 5 точное извлечение (доверие 7) [B058081F]
Трек 6 точное извлечение (доверие 7) [B6057048]
Трек 7 точное извлечение (доверие 7) [3F75DCB1]
Трек 8 точное извлечение (доверие 7) [1704B316]
Трек 9 точное извлечение (доверие 7) [94B4815B]
Трек 10 точное извлечение (доверие 7) [03A26EB4]
Трек 11 точное извлечение (доверие 7) [F1FC184A]
Трек 12 точное извлечение (доверие 7) [1341C623]
Трек 13 точное извлечение (доверие 7) [AC37BD53]
Трек 14 точное извлечение (доверие 7) [C31ACF78]

Все треки извлечены точно

Конец отчёта

[CUETools log; Date: 23.12.2015 20:06:57; Version: 2.1.4]
[CTDB TOCID: oNDGY_Vg6HWZuCJycDuRY2NaCgE-] found.
Track | CTDB Status
1 | (10/11) Accurately ripped
2 | (10/11) Accurately ripped
3 | (10/11) Accurately ripped
4 | (10/11) Accurately ripped
5 | (10/11) Accurately ripped
6 | (10/11) Accurately ripped
7 | (10/11) Accurately ripped
8 | (10/11) Accurately ripped
9 | (10/11) Accurately ripped
10 | (10/11) Accurately ripped
11 | (10/11) Accurately ripped
12 | (10/11) Accurately ripped
13 | (10/11) Accurately ripped
14 | (10/11) Accurately ripped
[AccurateRip ID: 001d9877-013edd3d-be0df10e] found.
Track [ CRC | V2 ] Status
01 [f310aed1|18181d63] (16+15/50) Accurately ripped
02 [33db035d|b26f2cd2] (16+15/48) Accurately ripped
03 [8bae1994|271ee37b] (16+15/49) Accurately ripped
04 [9424a022|2926b114] (16+15/49) Accurately ripped
05 [b058081f|ff5cb351] (16+15/49) Accurately ripped
06 [b6057048|8d0ce56b] (16+15/49) Accurately ripped
07 [3f75dcb1|7c35a44e] (16+15/48) Accurately ripped
08 [1704b316|eae27f7a] (16+15/49) Accurately ripped
09 [94b4815b|c38bef93] (16+15/49) Accurately ripped
10 [03a26eb4|f3b6a9e1] (16+15/49) Accurately ripped
11 [f1fc184a|6912cba4] (16+15/49) Accurately ripped
12 [1341c623|fcbf1d78] (16+15/49) Accurately ripped
13 [ac37bd53|78bba819] (16+15/48) Accurately ripped
14 [c31acf78|246ac384] (16+15/49) Accurately ripped
Offsetted by 30:
01 [cf3a00df] (07/50) Accurately ripped
02 [cd5810db] (06/48) Accurately ripped
03 [8d1f5060] (06/49) Accurately ripped
04 [cf22d68e] (06/49) Accurately ripped
05 [9e554bd9] (06/49) Accurately ripped
06 [6f0809a8] (06/49) Accurately ripped
07 [9b5cd49b] (06/48) Accurately ripped
08 [01ee802c] (06/49) Accurately ripped
09 [cf5f85a6] (06/49) Accurately ripped
10 [b490b88f] (06/49) Accurately ripped
11 [7f21b28e] (06/49) Accurately ripped
12 [dde102c3] (06/49) Accurately ripped
13 [59ddd773] (06/48) Accurately ripped
14 [1071781e] (06/49) Accurately ripped
Offsetted by 6:
01 [b8b28c07] (00/50) No match (V2 was not tested)
02 [ec273943] (00/48) No match (V2 was not tested)
03 [25918af0] (00/49) No match (V2 was not tested)
04 [d324449e] (00/49) No match (V2 was not tested)
05 [46577c11] (00/49) No match (V2 was not tested)
06 [a7d2c228] (00/49) No match (V2 was not tested)
07 [eb70db13] (00/48) No match (V2 was not tested)
08 [793375b4] (00/49) No match (V2 was not tested)
09 [43aca089] (00/49) No match (V2 was not tested)
10 [c06fb0f8] (00/49) No match (V2 was not tested)
11 [0e36d0be] (00/49) No match (V2 was not tested)
12 [0894d243] (00/49) No match (V2 was not tested)
13 [688c28f3] (00/48) No match (V2 was not tested)
14 [6c2c2466] (00/49) No match (V2 was not tested)

Track Peak [ CRC32 ] [W/O NULL] [ LOG ]
– 99,8 [4F1F6E0E] [7BCCE39B] CRC32
01 96,5 [DA1D5BDD] [217F96B7]
02 96,5 [81721770] [D5EBEEDF]
03 88,0 [C1385CAA] [B2BE4FFE]
04 96,5 [F26DD9FE] [B935F01F]
05 96,5 [5D9061B5] [29B33C52]
06 96,5 [27C134A1] [F93F2BFE]
07 96,5 [60FC5673] [398BD051]
08 96,5 [8323CDF7] [C1918FEF]
09 91,5 [929A523E] [C0301CA3]
10 96,5 [DBFCF6FC] [26603243]
11 42,8 [EE9D8D4E] [2225787E]
12 96,5 [2DC70713] [78ED7DAE]
13 96,5 [F95188E7] [FEA05E16]
14 99,8 [C483382A] [3C6F6276]

foobar2000 1.2 / Dynamic Range Meter 1.1.1
log date: 2016-01-04 14:50:03

––––––––––––––––––––––––––––––––––––––––
Analyzed: Janis Ian / Breaking Silence
––––––––––––––––––––––––––––––––––––––––

DR Peak RMS Duration Track
––––––––––––––––––––––––––––––––––––––––
DR14 -0.30 dB -15.85 dB 3:06 01-All Roads To The River
DR14 -0.31 dB -16.86 dB 3:40 02-Ride Me Like A Wave
DR12 -1.10 dB -17.53 dB 4:20 03-Tattoo
DR15 -0.30 dB -18.05 dB 4:07 04-Guess You Had To Be There
DR14 -0.30 dB -17.98 dB 4:59 05-What About The Love
DR15 -0.30 dB -17.44 dB 5:17 06-His Hands
DR14 -0.30 dB -16.46 dB 3:26 07-Walking On Sacred Ground
DR14 -0.30 dB -17.19 dB 4:04 08-This Train Still Runs
DR14 -0.77 dB -18.65 dB 3:41 09-Through The Years
DR13 -0.30 dB -16.98 dB 5:06 10-This House
DR11 -7.36 dB -26.35 dB 3:53 11-Some Peopleґs Lives
DR15 -0.30 dB -19.02 dB 3:13 12-Breaking Silence
DR13 -0.31 dB -15.17 dB 6:01 13-Ride Me Like A Wave-Wet Mix
DR8 -0.01 dB -10.27 dB 4:38 14-This Train Still Runs (Live)
––––––––––––––––––––––––––––––––––––––––

Number of tracks: 14
Official DR value: DR13

Samplerate: 44100 Hz
Channels: 2
Bits per sample: 16
Bitrate: 757 kbps
Codec: Monkey's Audio
================================================================================

Janis Ian - Breaking Silence (1993) Reissue 2003, Audiophile Edition

Janis Ian - Breaking Silence (1993) Reissue 2003, Audiophile Edition