Subcategories

Japan - Quiet Life (1979) [Remastered Edition]

Posted By: v3122
Japan - Quiet Life (1979) [Remastered Edition]

Japan - Quiet Life (1979)
EAC | Flac(Image) + Cue + Log & MP3 CBR 320Kbps
2006 | Sony BMG, 82876 844482 | ~ 384 or 109 Mb | Scans Included
New Wave | 4 Bonus Tracks

Quiet Life is the album that transformed Japan from past-tense glam rockers into futuristic synth popsters, though they'd been leaning in that direction for a while. It's also a solid proto-New Romantic synthesizer record, enhanced by Mick Karn's superb fretless bass work and David Sylvian's smooth, sneering vocals spread over pop hits like the title track and "Fall in Love with Me.

by Keith Farley, AMG
Japan - Quiet Life (1979) [Remastered Edition]


Japan - Quiet Life (1979):

Japan - Quiet Life (1979) [Remastered Edition]

Tracklist:

01 - Quiet Life – 04:51
02 - Fall In Love With Me – 04:35
03 - Despair – 05:57
04 - In Vogue – 06:33
05 - Halloween – 04:24
06 - All Tomorrow's Parties – 05:43
07 - Alien – 05:01
08 - The Other Side Of Life – 07:26

Bonus Tracks:
09 - All Tomorrow's Parties (1983 Remix) - 05:19
10 - All Tomorrow's Parties (Remix) - 03:34
11 - A Foreign Place - 03:11
12 - Quiet Life (7" Version) - 03:51

Convertet to Image (CUETools 2.1.4)

Exact Audio Copy V0.99 prebeta 5 from 4. May 2009

EAC extraction logfile from 18. January 2010, 9:18

Japan / Quiet Life (Remastered 2004)

Used drive : Optiarc DVD+-RW ND-3570A Adapter: 0 ID: 0

Read mode : Secure
Utilize accurate stream : Yes
Defeat audio cache : Yes
Make use of C2 pointers : No

Read offset correction : 48
Overread into Lead-In and Lead-Out : No
Fill up missing offset samples with silence : Yes
Delete leading and trailing silent blocks : No
Null samples used in CRC calculations : Yes
Used interface : Installed external ASPI interface
Gap handling : Appended to previous track

Used output format : User Defined Encoder
Selected bitrate : 320 kBit/s
Quality : High
Add ID3 tag : No
Command line compressor : C:\Program Files\Exact Audio Copy\FLAC\FLAC.EXE
Additional command line options : -V -8 -T "artist=%a" -T "title=%t" -T "album=%g" -T "date=%y" -T "tracknumber=%n" -T "genre=%m" %s


TOC of the extracted CD

Track | Start | Length | Start sector | End sector
––––––––––––––––––––––––––––-
1 | 0:00.00 | 4:51.42 | 0 | 21866
2 | 4:51.42 | 4:35.12 | 21867 | 42503
3 | 9:26.54 | 5:57.42 | 42504 | 69320
4 | 15:24.21 | 6:33.34 | 69321 | 98829
5 | 21:57.55 | 4:24.72 | 98830 | 118701
6 | 26:22.52 | 5:43.36 | 118702 | 144462
7 | 32:06.13 | 5:01.67 | 144463 | 167104
8 | 37:08.05 | 7:26.71 | 167105 | 200625
9 | 44:35.01 | 5:19.17 | 200626 | 224567
10 | 49:54.18 | 3:34.02 | 224568 | 240619
11 | 53:28.20 | 3:11.47 | 240620 | 254991
12 | 56:39.67 | 3:51.45 | 254992 | 272361
13 | 63:03.37 | 9:47.16 | 283762 | 327802


Track 1

Filename D:\music rips\Japan - 1979 - Quiet Life\01 - Quiet Life.wav

Pre-gap length 0:00:02.00

Peak level 97.7 %
Track quality 99.9 %
Test CRC 4CEADFFE
Copy CRC 4CEADFFE
Accurately ripped (confidence 5) [AC94611A]
Copy OK

Track 2

Filename D:\music rips\Japan - 1979 - Quiet Life\02 - Fall In Love With Me.wav

Pre-gap length 0:00:02.48

Peak level 97.7 %
Track quality 100.0 %
Test CRC 43AADB18
Copy CRC 43AADB18
Accurately ripped (confidence 5) [DBECA8D7]
Copy OK

Track 3

Filename D:\music rips\Japan - 1979 - Quiet Life\03 - Despair.wav

Pre-gap length 0:00:04.00

Peak level 63.6 %
Track quality 100.0 %
Test CRC 493839E4
Copy CRC 493839E4
Accurately ripped (confidence 5) [E49F0EED]
Copy OK

Track 4

Filename D:\music rips\Japan - 1979 - Quiet Life\04 - In Vogue.wav

Pre-gap length 0:00:04.00

Peak level 89.7 %
Track quality 100.0 %
Test CRC 08BF69F2
Copy CRC 08BF69F2
Accurately ripped (confidence 5) [AB47F05F]
Copy OK

Track 5

Filename D:\music rips\Japan - 1979 - Quiet Life\05 - Halloween.wav

Pre-gap length 0:00:04.00

Peak level 97.7 %
Track quality 100.0 %
Test CRC C74624CA
Copy CRC C74624CA
Accurately ripped (confidence 5) [FC221E3B]
Copy OK

Track 6

Filename D:\music rips\Japan - 1979 - Quiet Life\06 - All Tomorrow's Parties.wav

Pre-gap length 0:00:01.78

Peak level 92.1 %
Track quality 100.0 %
Test CRC 39553C6C
Copy CRC 39553C6C
Accurately ripped (confidence 5) [9A8214EA]
Copy OK

Track 7

Filename D:\music rips\Japan - 1979 - Quiet Life\07 - Alien.wav

Pre-gap length 0:00:00.48

Peak level 93.7 %
Track quality 100.0 %
Test CRC 4D88A4CA
Copy CRC 4D88A4CA
Accurately ripped (confidence 5) [8B8AE06D]
Copy OK

Track 8

Filename D:\music rips\Japan - 1979 - Quiet Life\08 - The Other Side Of Life.wav

Pre-gap length 0:00:04.00

Peak level 97.7 %
Track quality 99.9 %
Test CRC 62BDAA2D
Copy CRC 62BDAA2D
Accurately ripped (confidence 5) [94A0D6F0]
Copy OK

Track 9

Filename D:\music rips\Japan - 1979 - Quiet Life\09 - All Tomorrow's Parties (12'' Version).wav

Pre-gap length 0:00:03.17

Peak level 95.6 %
Track quality 100.0 %
Test CRC A0BC93B3
Copy CRC A0BC93B3
Accurately ripped (confidence 5) [63E22B01]
Copy OK

Track 10

Filename D:\music rips\Japan - 1979 - Quiet Life\10 - All Tomorrow's Parties (7'' Version).wav

Pre-gap length 0:00:04.00

Peak level 96.4 %
Track quality 100.0 %
Test CRC 11FCC4AA
Copy CRC 11FCC4AA
Accurately ripped (confidence 5) [DC21F9C7]
Copy OK

Track 11

Filename D:\music rips\Japan - 1979 - Quiet Life\11 - A Foreign Place.wav

Pre-gap length 0:00:00.92

Peak level 96.8 %
Track quality 100.0 %
Test CRC B55A9BA4
Copy CRC B55A9BA4
Accurately ripped (confidence 5) [F6D4BD68]
Copy OK

Track 12

Filename D:\music rips\Japan - 1979 - Quiet Life\12 - Quiet Life (7'' Version).wav

Pre-gap length 0:00:01.14

Peak level 97.7 %
Track quality 100.0 %
Test CRC 5633BCAF
Copy CRC 5633BCAF
Accurately ripped (confidence 5) [3ACC2A3A]
Copy OK


All tracks accurately ripped

No errors occurred

End of status report

foobar2000 1.2.9 / Dynamic Range Meter 1.1.1
log date: 2016-04-11 02:30:12

––––––––––––––––––––––––––––––––––––––––
Analyzed: Japan / Quiet Life
––––––––––––––––––––––––––––––––––––––––

DR Peak RMS Duration Track
––––––––––––––––––––––––––––––––––––––––
DR12 -0.20 dB -13.77 dB 4:52 01-Quiet Life
DR13 -0.20 dB -14.27 dB 4:35 02-Fall In Love With Me
DR13 -3.92 dB -20.04 dB 5:58 03-Despair
DR11 -0.94 dB -14.15 dB 6:33 04-In Vogue
DR12 -0.20 dB -14.17 dB 4:25 05-Halloween
DR12 -0.71 dB -15.91 dB 5:43 06-All Tonorrow's Parties
DR12 -0.56 dB -15.78 dB 5:02 07-Alien
DR13 -0.20 dB -15.62 dB 7:27 08-The Other Side Of Life
DR11 -0.39 dB -13.27 dB 5:19 09-All Tomorrow's Parties (1983 Remix)
DR10 -0.31 dB -11.83 dB 3:34 10-All Tomorrow's Parties (Remix)
DR11 -0.28 dB -14.22 dB 3:12 11-A Foreign Place
DR12 -0.20 dB -13.36 dB 3:52 12-Quiet Life (7
––––––––––––––––––––––––––––––––––––––––

Number of tracks: 12
Official DR value: DR12

Samplerate: 44100 Hz
Channels: 2
Bits per sample: 16
Bitrate: 830 kbps
Codec: FLAC

[CUETools log; Date: 04.04.2016 16:56:46; Version: 2.1.4]
CD-Extra data track length 09:47:16.
[AccurateRip ID: 001d2a69-01130033-c411120d] found.
Track [ CRC | V2 ] Status
01 [ac94611a|172215a9] (011+008/109) Accurately ripped
02 [dbeca8d7|4a4f8f08] (011+008/109) Accurately ripped
03 [e49f0eed|5078e96a] (011+008/109) Accurately ripped
04 [ab47f05f|33b5a5c4] (011+008/109) Accurately ripped
05 [fc221e3b|02009a47] (011+008/108) Accurately ripped
06 [9a8214ea|74cf440a] (011+008/108) Accurately ripped
07 [8b8ae06d|dc215a77] (011+008/109) Accurately ripped
08 [94a0d6f0|b00436dd] (011+008/108) Accurately ripped
09 [63e22b01|9006c7a8] (011+008/106) Accurately ripped
10 [dc21f9c7|5d9ad68e] (011+008/105) Accurately ripped
11 [f6d4bd68|6d94add6] (011+008/107) Accurately ripped
12 [3acc2a3a|051a4daa] (011+008/105) Accurately ripped
Offsetted by -676:
01 [9bab997e] (039/109) Accurately ripped
02 [67d1f01b] (039/109) Accurately ripped
03 [7ac04c9d] (039/109) Accurately ripped
04 [b0b515af] (039/109) Accurately ripped
05 [4e2b7e17] (039/108) Accurately ripped
06 [2bd22e26] (039/108) Accurately ripped
07 [754ce7c1] (039/109) Accurately ripped
08 [72d0ad98] (038/108) Accurately ripped
09 [eed6ae01] (037/106) Accurately ripped
10 [113f4937] (037/105) Accurately ripped
11 [e2254650] (038/107) Accurately ripped
12 [cea084d2] (037/105) Accurately ripped
Offsetted by -664:
01 [c6627a32] (000/109) No match (V2 was not tested)
02 [ba2a452f] (000/109) No match (V2 was not tested)
03 [4311820d] (000/109) No match (V2 was not tested)
04 [70fd5f3f] (000/109) No match (V2 was not tested)
05 [e43162a3] (000/108) No match (V2 was not tested)
06 [d7715392] (000/108) No match (V2 was not tested)
07 [ac3a5025] (000/109) No match (V2 was not tested)
08 [bda3e660] (000/108) No match (V2 was not tested)
09 [a834cd01] (000/106) No match (V2 was not tested)
10 [6cb4eb67] (000/105) No match (V2 was not tested)
11 [9fdca658] (000/107) No match (V2 was not tested)
12 [e135be4a] (000/105) No match (V2 was not tested)

Track Peak [ CRC32 ] [W/O NULL] [ LOG ]
– 97,7 [EDE47E02] [09F84E20]
01 97,7 [4CEADFFE] [218C2CD9] CRC32
02 97,7 [43AADB18] [13C1BEEF] CRC32
03 63,6 [493839E4] [92DC30D9] CRC32
04 89,7 [08BF69F2] [44841490] CRC32
05 97,7 [C74624CA] [FF69CF77] CRC32
06 92,1 [39553C6C] [6E9C9FE0] CRC32
07 93,7 [4D88A4CA] [580FB955] CRC32
08 97,7 [62BDAA2D] [D78EDA45] CRC32
09 95,6 [A0BC93B3] [B24835A7] CRC32
10 96,4 [11FCC4AA] [30354313] CRC32
11 96,8 [B55A9BA4] [B4B66569] CRC32
12 97,7 [5633BCAF] [84F7FC8B] CRC32

Japan - Quiet Life (1979) [Remastered Edition]

All thanks go to KingMcQueen

Download Japan - Quiet Life (1979):