Subcategories

Javier Colina Trio & Silvia Perez Cruz - En la imaginacion (2016) {Universal Spain}

Posted By: tiburon
Javier Colina Trio & Silvia Perez Cruz - En la imaginacion (2016) {Universal Spain}

Javier Colina Trio & Silvia Perez Cruz - En la imaginacion (2016) {Universal Spain}
EAC 1.3 | FLAC tracks level 8 | Cue+Log+M3U | Full Scans 300dpi | 564MB + 5% Recovery
MP3 CBR 320 Kbps | 156MB + 5% Recovery
Genre: Vocal Jazz, Post-Bop, Latin Jazz

Catalan folk singer Sílvia Pérez Cruz and the Javier Colina Trío (Colina on bass, Albert Sanz on piano, and Marc Miralta on the drums), plus guest saxophonist Perico Sambeat, revisit the Cuban songbook in the gorgeous En la Imaginación. Four years in the making, this genuine labor of love reimagines classics of the bolero, filin, and son, such as "Debí Llorar" and "Ella y Yo" in a jazz trio-and-voice setting.
Track List
01 - Debi llorar
02 - Que dirias de mi
03 - Mi mejor cancion
04 - Belen
05 - Ella y yo
06 - En la imaginacion
07 - La tarde
08 - Llora
09 - Si te contara
10 - El panquelero

new recordings
11 - Vete de mi
12 - La violetera
13 - Ya no me quieres

musicians
Voice – Sílvia Pérez Cruz
Double Bass – Javier Colina
Drums – Marc Miralta
Piano – Albert Sanz
Saxophone – Perico Sambeat on 3, 9, 10
Vocals – Javier Colina on 7

Produced by Javier Colina and Sílvia Pérez Cruz


Exact Audio Copy V1.3 from 2. September 2016

EAC extraction logfile from 21. March 2017, 14:16

Silvia Pérez Cruz & Javier Colina Trio / En la imaginación

Used drive : ASUS BW-16D1HT Adapter: 1 ID: 0

Read mode : Secure
Utilize accurate stream : Yes
Defeat audio cache : Yes
Make use of C2 pointers : No

Read offset correction : 6
Overread into Lead-In and Lead-Out : No
Fill up missing offset samples with silence : Yes
Delete leading and trailing silent blocks : No
Null samples used in CRC calculations : Yes
Used interface : Native Win32 interface for Win NT & 2000
Gap handling : Appended to previous track

Used output format : User Defined Encoder
Selected bitrate : 1024 kBit/s
Quality : High
Add ID3 tag : No
Command line compressor : C:\Program Files (x86)\Exact Audio Copy\FLAC\flac.exe
Additional command line options : -8 -V -T "ARTIST=%artist%" -T "TITLE=%title%" -T "ALBUM=%albumtitle%" -T "DATE=%year%" -T "TRACKNUMBER=%tracknr%" -T "GENRE=%genre%" -T "PERFORMER=%albuminterpret%" -T "COMPOSER=%composer%" %haslyrics%–tag-from-file=LYRICS="%lyricsfile%"%haslyrics% -T "ALBUMARTIST=%albumartist%" -T "ALBUM ARTIST=%albumartist%" -T "DISCNUMBER=%cdnumber%" -T "TOTALDISCS=%totalcds%" -T "TOTALTRACKS=%numtracks%" -T "COMMENT=EAC V1.0 beta 2, Secure Mode, Test & Copy, AccurateRip, FLAC -8" %source% -o %dest%


TOC of the extracted CD

Track | Start | Length | Start sector | End sector
––––––––––––––––––––––––––––-
1 | 0:00.00 | 5:40.18 | 0 | 25517
2 | 5:40.18 | 6:27.57 | 25518 | 54599
3 | 12:08.00 | 6:41.41 | 54600 | 84715
4 | 18:49.41 | 5:46.04 | 84716 | 110669
5 | 24:35.45 | 2:59.62 | 110670 | 124156
6 | 27:35.32 | 5:36.01 | 124157 | 149357
7 | 33:11.33 | 2:35.65 | 149358 | 161047
8 | 35:47.23 | 5:11.47 | 161048 | 184419
9 | 40:58.70 | 6:26.28 | 184420 | 213397
10 | 47:25.23 | 6:43.25 | 213398 | 243647
11 | 54:08.48 | 4:37.72 | 243648 | 264494
12 | 58:46.45 | 4:15.55 | 264495 | 283674
13 | 63:02.25 | 4:22.50 | 283675 | 303374


Track 1

Filename C:\pastacube\Silvia Pérez Cruz & Javier Colina Trio - En la imaginación (2016) [FLAC]\01 - Debí llorar.wav

Pre-gap length 0:00:02.00

Peak level 100.0 %
Extraction speed 3.1 X
Track quality 100.0 %
Test CRC 25C582BA
Copy CRC 25C582BA
Track not present in AccurateRip database
Copy OK

Track 2

Filename C:\pastacube\Silvia Pérez Cruz & Javier Colina Trio - En la imaginación (2016) [FLAC]\02 - Qué dirías de mí.wav

Pre-gap length 0:00:00.21

Peak level 96.3 %
Extraction speed 3.1 X
Track quality 99.9 %
Test CRC 76641521
Copy CRC 76641521
Track not present in AccurateRip database
Copy OK

Track 3

Filename C:\pastacube\Silvia Pérez Cruz & Javier Colina Trio - En la imaginación (2016) [FLAC]\03 - Mi mejor canción.wav

Pre-gap length 0:00:00.10

Peak level 96.3 %
Extraction speed 4.0 X
Track quality 100.0 %
Test CRC 5418809C
Copy CRC 5418809C
Track not present in AccurateRip database
Copy OK

Track 4

Filename C:\pastacube\Silvia Pérez Cruz & Javier Colina Trio - En la imaginación (2016) [FLAC]\04 - Belén.wav

Pre-gap length 0:00:00.10

Peak level 98.7 %
Extraction speed 4.4 X
Track quality 100.0 %
Test CRC 91A7ED33
Copy CRC 91A7ED33
Track not present in AccurateRip database
Copy OK

Track 5

Filename C:\pastacube\Silvia Pérez Cruz & Javier Colina Trio - En la imaginación (2016) [FLAC]\05 - Ella y yo.wav

Pre-gap length 0:00:00.10

Peak level 91.6 %
Extraction speed 4.2 X
Track quality 100.0 %
Test CRC A2EBEC5F
Copy CRC A2EBEC5F
Track not present in AccurateRip database
Copy OK

Track 6

Filename C:\pastacube\Silvia Pérez Cruz & Javier Colina Trio - En la imaginación (2016) [FLAC]\06 - En la imaginación.wav

Pre-gap length 0:00:00.10

Peak level 96.6 %
Extraction speed 4.8 X
Track quality 100.0 %
Test CRC 3FD1E1E7
Copy CRC 3FD1E1E7
Track not present in AccurateRip database
Copy OK

Track 7

Filename C:\pastacube\Silvia Pérez Cruz & Javier Colina Trio - En la imaginación (2016) [FLAC]\07 - La tarde.wav

Pre-gap length 0:00:00.12

Peak level 96.5 %
Extraction speed 4.5 X
Track quality 100.0 %
Test CRC D77DEFF8
Copy CRC D77DEFF8
Track not present in AccurateRip database
Copy OK

Track 8

Filename C:\pastacube\Silvia Pérez Cruz & Javier Colina Trio - En la imaginación (2016) [FLAC]\08 - Llora.wav

Pre-gap length 0:00:00.12

Peak level 96.8 %
Extraction speed 5.2 X
Track quality 100.0 %
Test CRC 8F013FF5
Copy CRC 8F013FF5
Track not present in AccurateRip database
Copy OK

Track 9

Filename C:\pastacube\Silvia Pérez Cruz & Javier Colina Trio - En la imaginación (2016) [FLAC]\09 - Si te contara.wav

Pre-gap length 0:00:00.10

Peak level 100.0 %
Extraction speed 5.5 X
Track quality 100.0 %
Test CRC 1A9C4E8E
Copy CRC 1A9C4E8E
Track not present in AccurateRip database
Copy OK

Track 10

Filename C:\pastacube\Silvia Pérez Cruz & Javier Colina Trio - En la imaginación (2016) [FLAC]\10 - El panquelero.wav

Pre-gap length 0:00:00.10

Peak level 100.0 %
Extraction speed 5.8 X
Track quality 100.0 %
Test CRC 15392CB4
Copy CRC 15392CB4
Track not present in AccurateRip database
Copy OK

Track 11

Filename C:\pastacube\Silvia Pérez Cruz & Javier Colina Trio - En la imaginación (2016) [FLAC]\11 - Vete de mí.wav

Pre-gap length 0:00:00.10

Peak level 96.9 %
Extraction speed 5.9 X
Track quality 100.0 %
Test CRC 2EF60718
Copy CRC 2EF60718
Track not present in AccurateRip database
Copy OK

Track 12

Filename C:\pastacube\Silvia Pérez Cruz & Javier Colina Trio - En la imaginación (2016) [FLAC]\12 - La violetera.wav

Pre-gap length 0:00:00.12

Peak level 97.4 %
Extraction speed 6.0 X
Track quality 100.0 %
Test CRC B7BB9250
Copy CRC B7BB9250
Track not present in AccurateRip database
Copy OK

Track 13

Filename C:\pastacube\Silvia Pérez Cruz & Javier Colina Trio - En la imaginación (2016) [FLAC]\13 - Ya no me quieres.wav

Pre-gap length 0:00:00.12

Peak level 97.1 %
Extraction speed 6.1 X
Track quality 100.0 %
Test CRC C067F72C
Copy CRC C067F72C
Track not present in AccurateRip database
Copy OK


None of the tracks are present in the AccurateRip database

No errors occurred

End of status report

==== Log checksum 5CF76AE66F9032F8FCC121CA125B2382A7D9F951C8D74E927D14D042527B5D8B ====

Javier Colina Trio & Silvia Perez Cruz - En la imaginacion (2016) {Universal Spain}
Javier Colina Trio & Silvia Perez Cruz - En la imaginacion (2016) {Universal Spain}


Thanks to the original ripper