Subcategories

Jean-Jacques Goldman - En passant (1997) (Repost)

Posted By: tirexiss
Jean-Jacques Goldman - En passant (1997) (Repost)

Jean-Jacques Goldman - En passant (1997)
EAC | FLAC (image+.cue, log) - 300 MB | MP3 (CBR 320 kbps) - 120 MB | Covers Included | 47:35
Genre: Pop, Chanson | Label: Columbia | Catalog: COL 488791 - 2

L'événement de la rentrée. En effet, c'est le premier album solo de Jean-Jacques Goldman depuis dix ans, depuis Entre gris clair et gris foncé. Après avoir mis entre parenthèses le trio Fredericks-Goldman-Jones, Carole Fredericks a sorti un album de gospel et Michael Jones un album de blues. C'est au tour de Goldman de sortir le sien. Un soin particulier a été apporté à la réalisation, aux photos (signées Gassian) ou au marketing. Propulsé directement numéro un des ventes - on annonce déjà des records - dès sa sortie, En passant ne décevra pas les fans. On y retrouve tous les thèmes qui lui sont chers (les variations autour de l'amour…), mais cette fois le ton est un peu plus grave. S'il n'y a pas de réelles surprises, au moins est-il le reflet de ce que l'on attendait.

Jean-Jacques Goldman - En passant (1997) (Repost)

Track List:

01. Sache que je
02. Bonne idée
03. Tout était dit
04. Quand tu danses
05. Le coureur
06. Juste quelques hommes
07. Nos mains
08. Natacha
09. Les murailles
10. On ira
11. En passant

Personnel:
Accordéon : Oleg Kouzmitchenko (Natacha)
Balalaîka : Marc De Loutcheck (Natacha)
Basse : Guy Delacroix (Tout était dit, Le coureur, On ira)
Batterie : Christophe Deschamps (Le coureur, On ira)
Choeurs : Carole Fredericks (Tout était dit, Juste quelques hommes), Michael Jones (On ira), Yvonne Jones (Tout était dit, Juste quelques hommes), Maria Popkiewicz (Tout était dit, Juste quelques hommes)
Claviers : Erick Benzi
Guitare électrique : Michael Jones (On ira), Patrice Tison (Sache que je, Juste quelques hommes)
Guitare slide : Gildas Arzel (Le coureur)
Guitares : Jean-Jacques Goldman
Percussions : Erick Benzi, Marc Chantereau (Le coureur),
Programmation : Erick Benzi
Saxophone : Cristophe Nègre (On ira)
Violon : Marek Czerniawski (Natacha)

Exact Audio Copy V0.99 prebeta 3 from 28. July 2007

EAC extraction logfile from 29. May 2011, 15:29

Jean-Jacques Goldman / En Passant

Used drive : PLEXTOR DVDR PX-L890SA Adapter: 2 ID: 0

Read mode : Secure
Utilize accurate stream : Yes
Defeat audio cache : Yes
Make use of C2 pointers : No

Read offset correction : 6
Overread into Lead-In and Lead-Out : No
Fill up missing offset samples with silence : Yes
Delete leading and trailing silent blocks : No
Null samples used in CRC calculations : Yes
Used interface : Native Win32 interface for Win NT & 2000

Used output format : User Defined Encoder
Selected bitrate : 768 kBit/s
Quality : High
Add ID3 tag : No
Command line compressor : C:\Program Files\Exact Audio Copy\FLAC\FLAC.EXE
Additional command line options : -6 -V -T "ARTIST=%a" -T "TITLE=%t" -T "ALBUM=%g" -T "DATE=%y" -T "TRACKNUMBER=%n" -T "GENRE=%m" -T "COMMENT=%e" %s -o %d


TOC of the extracted CD

Track | Start | Length | Start sector | End sector
––––––––––––––––––––––––––––-
1 | 0:00.00 | 5:25.37 | 0 | 24411
2 | 5:25.37 | 3:28.13 | 24412 | 40024
3 | 8:53.50 | 4:21.70 | 40025 | 59669
4 | 13:15.45 | 4:29.07 | 59670 | 79851
5 | 17:44.52 | 4:16.08 | 79852 | 99059
6 | 22:00.60 | 4:47.70 | 99060 | 120654
7 | 26:48.55 | 3:21.50 | 120655 | 135779
8 | 30:10.30 | 3:04.17 | 135780 | 149596
9 | 33:14.47 | 2:30.60 | 149597 | 160906
10 | 35:45.32 | 4:26.63 | 160907 | 180919
11 | 40:12.20 | 7:23.15 | 180920 | 214159


Range status and errors

Selected range

Filename C:\Jean-Jacques Goldman - En Passant.wav

Peak level 98.3 %
Range quality 100.0 %
Copy CRC 65047D11
Copy OK

No errors occurred


End of status report

Thanks to the Original ripper (unknown)!

Download: