Subcategories

Jean-Michel Jarre - Electronica 1: The Time Machine (2015)

Posted By: bast4rd
Jean-Michel Jarre - Electronica 1: The Time Machine (2015)

Jean-Michel Jarre - Electronica 1: The Time Machine (2015)
EAC Rip | FLAC (tracks) | cuesheets+log | 67:35 mins | covers+booklet | 143 + 494 Mb
Style: Electronic, Ambient, New Age | Label: Sony Music

The French synthesizer icon has been teasing out details on the new album since April, revealing various high profile collaborators involved with the record. Electronica 1: The Time Machine is in fact a fully collaborative effort: all of its 16 tracks have Jarre working with another producer.

His choices truly run the gamut. On "Travelator (Part 2)" he works with The Who's Pete Townshend, while "Suns Have Gone" has his teaming up with electronica superstar Moby. He's enlisted some other synth veterans, such as John Carpenter and Tangerine Dream—album track "Zero Gravity" is one of the last recorded works of the latter group's lynchpin, Edgar Froese. Elsewhere, Boys Noize, Gesaffelstein and Fuck Buttons also take up with the French legend.
Tracklist:

01. The Time Machine feat. Boys Noize
02. Glory feat. M83
03. Close Your Eyes feat. Air
04. Automatic (Part 1) feat. Vince Clarke
05. Automatic (Part 2) feat. Vince Clarke
06. If..! feat. Little Boots
07. Immortals feat. Fuck Buttons
08. Suns Have Gone feat. Moby
09. Conquistador feat. Gesaffelstein
10. Travelator (Part 2) feat. Pete Townshend
11. Zero Gravity feat. Tangerine Dream
12. Rely On Me feat. Laurie Anderson
13. Stardust feat. Armin Van Buuren
14. Watching You feat. 3D (Massive Attack)
15. A Question Of Blood feat. John Carpenter
16. The Train & The River feat. Lang Lang


Exact Audio Copy V1.1 from 23. June 2015

EAC extraction logfile from 15. October 2015, 19:12

Jean-Michel Jarre / Electronica 1 - The Time Machine

Used drive : PLEXTOR DVDR PX-891SA Adapter: 1 ID: 1

Read mode : Secure
Utilize accurate stream : Yes
Defeat audio cache : Yes
Make use of C2 pointers : No

Read offset correction : 6
Overread into Lead-In and Lead-Out : No
Fill up missing offset samples with silence : Yes
Delete leading and trailing silent blocks : No
Null samples used in CRC calculations : Yes
Used interface : Native Win32 interface for Win NT & 2000
Gap handling : Appended to previous track

Used output format : User Defined Encoder
Selected bitrate : 1024 kBit/s
Quality : High
Add ID3 tag : No
Command line compressor : C:\Program Files (x86)\Exact Audio Copy\Flac\flac.exe
Additional command line options : -0 -V -T "ARTIST=%artist%" -T "TITLE=%title%" -T "ALBUM=%albumtitle%" -T "DATE=%year%" -T "TRACKNUMBER=%tracknr%" -T "TOTALTRACKS=%numtracks%" -T "GENRE=%genre%" -T "COMMENT=Naftamusic Release!" %source%


TOC of the extracted CD

Track | Start | Length | Start sector | End sector
––––––––––––––––––––––––––––-
1 | 0:00.00 | 3:52.23 | 0 | 17422
2 | 3:52.23 | 3:56.27 | 17423 | 35149
3 | 7:48.50 | 6:24.54 | 35150 | 64003
4 | 14:13.29 | 3:09.24 | 64004 | 78202
5 | 17:22.53 | 2:58.43 | 78203 | 91595
6 | 20:21.21 | 2:57.34 | 91596 | 104904
7 | 23:18.55 | 4:30.04 | 104905 | 125158
8 | 27:48.59 | 5:46.74 | 125159 | 151182
9 | 33:35.58 | 3:06.68 | 151183 | 165200
10 | 36:42.51 | 3:06.23 | 165201 | 179173
11 | 39:48.74 | 6:46.30 | 179174 | 209653
12 | 46:35.29 | 2:56.48 | 209654 | 222901
13 | 49:32.02 | 4:36.01 | 222902 | 243602
14 | 54:08.03 | 4:05.39 | 243603 | 262016
15 | 58:13.42 | 3:00.05 | 262017 | 275521
16 | 61:13.47 | 7:13.65 | 275522 | 308061


Track 1

Filename E:\Nafta Releases\Jean-Michel Jarre - Electronica 1 - The Time Machine (2015)[FLAC] - Naftamusic\01 - The Time Machine (Feat. Boys Noize).wav

Pre-gap length 0:00:02.00

Peak level 90.2 %
Extraction speed 2.1 X
Track quality 100.0 %
Test CRC D7BB7CB6
Copy CRC D7BB7CB6
Track not present in AccurateRip database
Copy OK

Track 2

Filename E:\Nafta Releases\Jean-Michel Jarre - Electronica 1 - The Time Machine (2015)[FLAC] - Naftamusic\02 - Glory (Feat. M83).wav

Peak level 90.2 %
Extraction speed 1.7 X
Track quality 99.9 %
Test CRC 93CF1A95
Copy CRC 93CF1A95
Track not present in AccurateRip database
Copy OK

Track 3

Filename E:\Nafta Releases\Jean-Michel Jarre - Electronica 1 - The Time Machine (2015)[FLAC] - Naftamusic\03 - Close Your Eyes (Feat. AIR).wav

Peak level 90.1 %
Extraction speed 2.7 X
Track quality 100.0 %
Test CRC A6AF66D5
Copy CRC A6AF66D5
Track not present in AccurateRip database
Copy OK

Track 4

Filename E:\Nafta Releases\Jean-Michel Jarre - Electronica 1 - The Time Machine (2015)[FLAC] - Naftamusic\04 - Automatic (Part 1) (Feat. Vince Clarke).wav

Peak level 90.3 %
Extraction speed 2.7 X
Track quality 100.0 %
Test CRC F9521620
Copy CRC F9521620
Track not present in AccurateRip database
Copy OK

Track 5

Filename E:\Nafta Releases\Jean-Michel Jarre - Electronica 1 - The Time Machine (2015)[FLAC] - Naftamusic\05 - Automatic (Part 2) (Feat. Vince Clarke).wav

Peak level 90.2 %
Extraction speed 2.8 X
Track quality 100.0 %
Test CRC F472C657
Copy CRC F472C657
Track not present in AccurateRip database
Copy OK

Track 6

Filename E:\Nafta Releases\Jean-Michel Jarre - Electronica 1 - The Time Machine (2015)[FLAC] - Naftamusic\06 - If..! (Feat. Little Boots).wav

Peak level 90.1 %
Extraction speed 2.9 X
Track quality 100.0 %
Test CRC 3774C386
Copy CRC 3774C386
Track not present in AccurateRip database
Copy OK

Track 7

Filename E:\Nafta Releases\Jean-Michel Jarre - Electronica 1 - The Time Machine (2015)[FLAC] - Naftamusic\07 - Immortals (Feat. Fuck Buttons).wav

Peak level 90.7 %
Extraction speed 3.2 X
Track quality 100.0 %
Test CRC 64D2119A
Copy CRC 64D2119A
Track not present in AccurateRip database
Copy OK

Track 8

Filename E:\Nafta Releases\Jean-Michel Jarre - Electronica 1 - The Time Machine (2015)[FLAC] - Naftamusic\08 - Suns Have Gone (Feat. Moby).wav

Peak level 90.2 %
Extraction speed 3.5 X
Track quality 100.0 %
Test CRC D13B373D
Copy CRC D13B373D
Track not present in AccurateRip database
Copy OK

Track 9

Filename E:\Nafta Releases\Jean-Michel Jarre - Electronica 1 - The Time Machine (2015)[FLAC] - Naftamusic\09 - Conquistador (Feat. Gesaffelstein).wav

Peak level 90.2 %
Extraction speed 2.3 X
Track quality 99.9 %
Test CRC 8C9399CA
Copy CRC 8C9399CA
Track not present in AccurateRip database
Copy OK

Track 10

Filename E:\Nafta Releases\Jean-Michel Jarre - Electronica 1 - The Time Machine (2015)[FLAC] - Naftamusic\10 - Travelator (Part 2) (Feat. Pete Townshend).wav

Peak level 90.1 %
Extraction speed 3.5 X
Track quality 100.0 %
Test CRC 02E252BC
Copy CRC 02E252BC
Track not present in AccurateRip database
Copy OK

Track 11

Filename E:\Nafta Releases\Jean-Michel Jarre - Electronica 1 - The Time Machine (2015)[FLAC] - Naftamusic\11 - Zero Gravity (Feat. Tangerine Dream).wav

Peak level 90.2 %
Extraction speed 4.0 X
Track quality 100.0 %
Test CRC 01134C35
Copy CRC 01134C35
Track not present in AccurateRip database
Copy OK

Track 12

Filename E:\Nafta Releases\Jean-Michel Jarre - Electronica 1 - The Time Machine (2015)[FLAC] - Naftamusic\12 - Rely On Me (Feat. Laurie Anderson).wav

Peak level 90.2 %
Extraction speed 2.5 X
Track quality 99.9 %
Test CRC 27CAA90D
Copy CRC 27CAA90D
Track not present in AccurateRip database
Copy OK

Track 13

Filename E:\Nafta Releases\Jean-Michel Jarre - Electronica 1 - The Time Machine (2015)[FLAC] - Naftamusic\13 - Stardust (Feat. Armin Van Buuren).wav

Peak level 90.2 %
Extraction speed 4.1 X
Track quality 100.0 %
Test CRC 4351C5F2
Copy CRC 4351C5F2
Track not present in AccurateRip database
Copy OK

Track 14

Filename E:\Nafta Releases\Jean-Michel Jarre - Electronica 1 - The Time Machine (2015)[FLAC] - Naftamusic\14 - Watching You (Feat. & 3D (Massive Attack).wav

Peak level 90.2 %
Extraction speed 4.2 X
Track quality 100.0 %
Test CRC 2C9B554F
Copy CRC 2C9B554F
Track not present in AccurateRip database
Copy OK

Track 15

Filename E:\Nafta Releases\Jean-Michel Jarre - Electronica 1 - The Time Machine (2015)[FLAC] - Naftamusic\15 - A Question Of Blood (Feat. John Carpenter).wav

Peak level 90.2 %
Extraction speed 4.0 X
Track quality 100.0 %
Test CRC 7618D211
Copy CRC 7618D211
Track not present in AccurateRip database
Copy OK

Track 16

Filename E:\Nafta Releases\Jean-Michel Jarre - Electronica 1 - The Time Machine (2015)[FLAC] - Naftamusic\16 - The Train & The River (Feat. Lang Lang).wav

Peak level 90.4 %
Extraction speed 4.6 X
Track quality 100.0 %
Test CRC FA6F9C91
Copy CRC FA6F9C91
Track not present in AccurateRip database
Copy OK


None of the tracks are present in the AccurateRip database

No errors occurred

End of status report

==== Log checksum 2649759CE559302B820E3FC13D8C6C72090CE9C09E3895CF1095ED715E3D1DCB ====


Thanks to thoms01!
DOWNLOAD:
NITROFLARE:
album | artwork