Subcategories

Jeff Beck - Original Album Classics (2008) [5CD Box Set]

Posted By: v3122
Jeff Beck - Original Album Classics (2008) [5CD Box Set]

Jeff Beck - Original Album Classics (2008)
EAC | Flac(Image) + Cue + Log & MP3 CBR 320Kbps
Sony BMG Music Entertainment, 88697302772 | ~ 1301 or 520 Mb | Scans(png) -> 257 Mb
Blues rock, Jazz fusion, Instrumental Rock, Hard Rock, Progressive Rock

The 2008 box set Original Album Classics rounds up Jeff Beck's first five albums after the departure of Rod Stewart and Ronnie Wood: Rough & Ready, Blow by Blow, Jeff Beck Group, Wired, Jeff Beck with the Jan Hammer Group Live. Each album is presented as a paper-sleeve mini-LP, making this a handsome, affordable way to get the bulk of Beck's '70s catalog.
Jeff Beck - Original Album Classics (2008):

Jeff Beck - Original Album Classics (2008) [5CD Box Set]

Tracklist CD1 - 1971 Jeff Beck Group (Rough & Ready):

1. Got The Feeling
2. Situation
3. Short Business
4. Max's Tune
5. I've Been Used
6. New Ways / Train Train
7. Jody

Exact Audio Copy V1.0 beta 2 from 29. April 2011

EAC extraction logfile from 24. July 2011, 13:44

Jeff Beck Group / Rough And Ready

Used drive : HL-DT-STDVDRAM GSA-H60N Adapter: 2 ID: 0

Read mode : Secure
Utilize accurate stream : Yes
Defeat audio cache : Yes
Make use of C2 pointers : No

Read offset correction : 667
Overread into Lead-In and Lead-Out : No
Fill up missing offset samples with silence : Yes
Delete leading and trailing silent blocks : No
Null samples used in CRC calculations : Yes
Used interface : Native Win32 interface for Win NT & 2000

Used output format : Internal WAV Routines
Sample format : 44.100 Hz; 16 Bit; Stereo


TOC of the extracted CD

Track | Start | Length | Start sector | End sector
––––––––––––––––––––––––––––-
1 | 0:00.00 | 4:46.00 | 0 | 21449
2 | 4:46.00 | 5:27.02 | 21450 | 45976
3 | 10:13.02 | 2:34.20 | 45977 | 57546
4 | 12:47.22 | 8:24.53 | 57547 | 95399
5 | 21:12.00 | 3:40.10 | 95400 | 111909
6 | 24:52.10 | 5:52.40 | 111910 | 138349
7 | 30:44.50 | 6:05.42 | 138350 | 165766


Range status and errors

Selected range

Filename C:\Documents and Settings\Администратор\Рабочий стол\Rip by ALLexxess\Jeff Beck\2008 Original Album Classics\1971 Rough & Ready\Jeff Beck Group - Rough And Ready.wav

Peak level 100.0 %
Extraction speed 5.5 X
Range quality 100.0 %
Test CRC 3F063E1E
Copy CRC 3F063E1E
Copy OK

No errors occurred


AccurateRip summary

Track 1 accurately ripped (confidence 6) [50054CBD] (AR v2)
Track 2 accurately ripped (confidence 6) [81FCABDA] (AR v2)
Track 3 accurately ripped (confidence 6) [8D3F1D9A] (AR v2)
Track 4 accurately ripped (confidence 6) [60C9312A] (AR v2)
Track 5 accurately ripped (confidence 6) [472C03F9] (AR v2)
Track 6 accurately ripped (confidence 6) [AAF9E79C] (AR v2)
Track 7 accurately ripped (confidence 6) [BF10D863] (AR v2)

All tracks accurately ripped

End of status report

==== Log checksum 96F70A472489566941D3C27B094A3B5ED265BA82B2100156949A1BEBA8C1A55B ====


[CUETools log; Date: 04.03.2018 13:51:10; Version: 2.1.5]
[CTDB TOCID: tpLi0.FZndcfbfv05mSQsB7NHh8-] found.
Track | CTDB Status
1 | (144/145) Accurately ripped
2 | (144/145) Accurately ripped
3 | (144/145) Accurately ripped
4 | (144/145) Accurately ripped
5 | (144/145) Accurately ripped
6 | (144/145) Accurately ripped
7 | (144/145) Accurately ripped
[AccurateRip ID: 0009b5f1-003acef2-6908a207] found.
Track [ CRC | V2 ] Status
01 [959201dd|50054cbd] (034+101/148) Accurately ripped
02 [ac8991df|81fcabda] (033+102/148) Accurately ripped
03 [34332e92|8d3f1d9a] (033+102/148) Accurately ripped
04 [a8266c72|60c9312a] (033+102/148) Accurately ripped
05 [69375b56|472c03f9] (033+102/148) Accurately ripped
06 [4a4346ac|aaf9e79c] (033+102/148) Accurately ripped
07 [d16fd5d4|bf10d863] (033+102/148) Accurately ripped
Offsetted by -635:
01 [79a6679a] (002/148) Accurately ripped
02 [7d9e3b78] (002/148) Accurately ripped
03 [a9e922c4] (002/148) Accurately ripped
04 [8eac53b2] (002/148) Accurately ripped
05 [2b36e302] (002/148) Accurately ripped
06 [cff70afa] (002/148) Accurately ripped
07 [0ab44424] (002/148) Accurately ripped

Track Peak [ CRC32 ] [W/O NULL] [ LOG ]
– 100,0 [3F063E1E] [ECEAEBAB] CRC32
01 97,7 [4E4ED275] [0D86F05C]
02 95,4 [071BD013] [A9A71C35]
03 80,9 [6972E3D4] [78295D7A]
04 99,0 [F12B103F] [50329D53]
05 98,3 [E66304B2] [C9688DAE]
06 100,0 [0E35481D] [3A9EBC86]
07 99,5 [47B46D7C] [441FC55F]


Jeff Beck - Original Album Classics (2008) [5CD Box Set]

Tracklist CD2 - 1972 Jeff Beck Group:

1. Ice Cream Cakes
2. Glad All Over
3. Tonight til Be Staying Here With You
4. Sugar Cane
5. I Can't Give Back The Love I Feel For You
6. Going Down
7. I Got To Have A Song
8. Highways
9. Definitely Maybe

Exact Audio Copy V1.0 beta 2 from 29. April 2011

EAC extraction logfile from 24. July 2011, 21:46

Jeff Beck Group / Jeff Beck Group

Used drive : HL-DT-STDVDRAM GSA-H60N Adapter: 2 ID: 0

Read mode : Secure
Utilize accurate stream : Yes
Defeat audio cache : Yes
Make use of C2 pointers : No

Read offset correction : 667
Overread into Lead-In and Lead-Out : No
Fill up missing offset samples with silence : Yes
Delete leading and trailing silent blocks : No
Null samples used in CRC calculations : Yes
Used interface : Native Win32 interface for Win NT & 2000

Used output format : Internal WAV Routines
Sample format : 44.100 Hz; 16 Bit; Stereo


TOC of the extracted CD

Track | Start | Length | Start sector | End sector
––––––––––––––––––––––––––––-
1 | 0:00.00 | 5:40.07 | 0 | 25506
2 | 5:40.07 | 2:58.03 | 25507 | 38859
3 | 8:38.10 | 4:58.72 | 38860 | 61281
4 | 13:37.07 | 4:07.08 | 61282 | 79814
5 | 17:44.15 | 2:42.65 | 79815 | 92029
6 | 20:27.05 | 6:51.02 | 92030 | 122856
7 | 27:18.07 | 3:26.68 | 122857 | 138374
8 | 30:45.00 | 4:41.15 | 138375 | 159464
9 | 35:26.15 | 5:01.20 | 159465 | 182059


Range status and errors

Selected range

Filename C:\Documents and Settings\Администратор\Рабочий стол\Rip by ALLexxess\Jeff Beck\2008 Original Album Classics\1972 Jeff Beck Group\Jeff Beck Group - Jeff Beck Group.wav

Peak level 100.0 %
Extraction speed 5.6 X
Range quality 100.0 %
Test CRC A496CAAC
Copy CRC A496CAAC
Copy OK

No errors occurred


AccurateRip summary

Track 1 accurately ripped (confidence 6) [00E9F77E] (AR v2)
Track 2 accurately ripped (confidence 6) [2DA8C3DB] (AR v2)
Track 3 accurately ripped (confidence 6) [852EA6A8] (AR v2)
Track 4 accurately ripped (confidence 6) [64640B00] (AR v2)
Track 5 accurately ripped (confidence 6) [B3344072] (AR v2)
Track 6 accurately ripped (confidence 6) [5A797148] (AR v2)
Track 7 accurately ripped (confidence 6) [9467BC6A] (AR v2)
Track 8 accurately ripped (confidence 6) [CCF432BF] (AR v2)
Track 9 accurately ripped (confidence 6) [E5B12DF2] (AR v2)

All tracks accurately ripped

End of status report

==== Log checksum 0C4585BD0A7ED23BA5641FAA46E2E1DDDEBBF955EAA5765D380302E05327D492 ====


[CUETools log; Date: 04.03.2018 13:51:56; Version: 2.1.5]
[CTDB TOCID: wspGzJ_Tth1Fo7xgtfxPVAy5YZs-] found.
Track | CTDB Status
1 | (145/148) Accurately ripped
2 | (147/148) Accurately ripped
3 | (146/148) Accurately ripped
4 | (147/148) Accurately ripped
5 | (147/148) Accurately ripped
6 | (147/148) Accurately ripped
7 | (147/148) Accurately ripped
8 | (147/148) Accurately ripped
9 | (147/148) Accurately ripped
[AccurateRip ID: 000dbc9b-0064818a-6b097b09] found.
Track [ CRC | V2 ] Status
01 [54f992a5|00e9f77e] (033+103/146) Accurately ripped
02 [0143c5f1|2da8c3db] (033+104/147) Accurately ripped
03 [bfb7fb05|852ea6a8] (033+104/147) Accurately ripped
04 [1de3a11e|64640b00] (033+103/146) Accurately ripped
05 [cdc36937|b3344072] (033+104/147) Accurately ripped
06 [2c23356b|5a797148] (033+104/147) Accurately ripped
07 [719591bf|9467bc6a] (033+103/146) Accurately ripped
08 [7892a2e7|ccf432bf] (033+104/147) Accurately ripped
09 [60c2b855|e5b12df2] (033+104/147) Accurately ripped
Offsetted by -36:
01 [2aee9e89] (000/146) No match (V2 was not tested)
02 [d72b80e5] (000/147) No match (V2 was not tested)
03 [6af29b09] (000/147) No match (V2 was not tested)
04 [a4ea0bfa] (000/146) No match (V2 was not tested)
05 [763f833b] (000/147) No match (V2 was not tested)
06 [bcde7083] (000/147) No match (V2 was not tested)
07 [2fbd91bf] (000/146) No match (V2 was not tested)
08 [5f56a2e7] (000/147) No match (V2 was not tested)
09 [0202b855] (000/147) No match (V2 was not tested)

Track Peak [ CRC32 ] [W/O NULL] [ LOG ]
– 100,0 [A496CAAC] [A78E3E5D] CRC32
01 100,0 [BF1E4350] [B644F369]
02 100,0 [47E349CE] [0E310E99]
03 97,1 [95A1C669] [D06DFB80]
04 100,0 [477A2FC1] [ECACD537]
05 93,0 [2C9628BE] [D1C0462E]
06 100,0 [F1EE9108] [7A65B49E]
07 89,0 [D2A70CA3] [8F0DB583]
08 74,8 [CB712092] [AF5A637B]
09 99,6 [5EA9663D] [0B2C4219]


Jeff Beck - Original Album Classics (2008) [5CD Box Set]

Tracklist CD3 - 1975 Blow By Blow:

1. You Know What I Mean
2. She's A Woman
3. Constipated Duck
4. Air Blower
5. Scatterbrain
6. Cause We've Ended As Lovers
7. Thelonius
8. Freeway Jam
9. Diamond Dust

Exact Audio Copy V1.0 beta 2 from 29. April 2011

EAC extraction logfile from 24. July 2011, 11:26

Jeff Beck / Blow By Blow

Used drive : HL-DT-STDVDRAM GSA-H60N Adapter: 2 ID: 0

Read mode : Secure
Utilize accurate stream : Yes
Defeat audio cache : Yes
Make use of C2 pointers : No

Read offset correction : 667
Overread into Lead-In and Lead-Out : No
Fill up missing offset samples with silence : Yes
Delete leading and trailing silent blocks : No
Null samples used in CRC calculations : Yes
Used interface : Native Win32 interface for Win NT & 2000

Used output format : Internal WAV Routines
Sample format : 44.100 Hz; 16 Bit; Stereo


TOC of the extracted CD

Track | Start | Length | Start sector | End sector
––––––––––––––––––––––––––––-
1 | 0:00.00 | 4:05.45 | 0 | 18419
2 | 4:05.45 | 4:31.02 | 18420 | 38746
3 | 8:36.47 | 2:48.05 | 38747 | 51351
4 | 11:24.52 | 5:09.60 | 51352 | 74586
5 | 16:34.37 | 5:39.45 | 74587 | 100056
6 | 22:14.07 | 5:42.05 | 100057 | 125711
7 | 27:56.12 | 3:16.18 | 125712 | 140429
8 | 31:12.30 | 4:58.50 | 140430 | 162829
9 | 36:11.05 | 8:26.30 | 162830 | 200809


Range status and errors

Selected range

Filename C:\Documents and Settings\Администратор\Рабочий стол\Rip by ALLexxess\Jeff Beck\2008 Original Album Classics\1975 Blow By Blow\Jeff Beck - Blow By Blow.wav

Peak level 99.8 %
Extraction speed 5.7 X
Range quality 100.0 %
Test CRC B5A82F14
Copy CRC B5A82F14
Copy OK

No errors occurred


AccurateRip summary

Track 1 accurately ripped (confidence 6) [0284F5BE] (AR v2)
Track 2 accurately ripped (confidence 6) [B69DB4A4] (AR v2)
Track 3 accurately ripped (confidence 6) [7A1B4097] (AR v2)
Track 4 accurately ripped (confidence 6) [A111B78A] (AR v2)
Track 5 accurately ripped (confidence 6) [2E03D03F] (AR v2)
Track 6 accurately ripped (confidence 6) [134814FE] (AR v2)
Track 7 accurately ripped (confidence 6) [24119E57] (AR v2)
Track 8 accurately ripped (confidence 6) [0CA43230] (AR v2)
Track 9 accurately ripped (confidence 6) [1BB7C04A] (AR v2)

All tracks accurately ripped

End of status report

==== Log checksum FCD3BF5823E913296FD2B194351D955344DC821F12ECAF072EC3BBADB9C6EAD3 ====


[CUETools log; Date: 04.03.2018 13:52:25; Version: 2.1.5]
[CTDB TOCID: jd58i7cArDvAVsR6HrGkeaqWxFc-] found.
Track | CTDB Status
1 | (266/269) Accurately ripped
2 | (268/269) Accurately ripped
3 | (269/269) Accurately ripped
4 | (267/269) Accurately ripped
5 | (268/269) Accurately ripped
6 | (269/269) Accurately ripped
7 | (269/269) Accurately ripped
8 | (269/269) Accurately ripped
9 | (268/269) Accurately ripped
[AccurateRip ID: 000dee31-0067e4b9-8d0a7509] found.
Track [ CRC | V2 ] Status
01 [87656ff3|0284f5be] (031+095/229) Accurately ripped
02 [13e445c8|b69db4a4] (032+096/233) Accurately ripped
03 [c6a0566a|7a1b4097] (032+095/230) Accurately ripped
04 [b920e95b|a111b78a] (032+095/232) Accurately ripped
05 [758f7d04|2e03d03f] (032+095/232) Accurately ripped
06 [49c384d7|134814fe] (032+096/232) Accurately ripped
07 [cfb7d669|24119e57] (032+095/230) Accurately ripped
08 [bb2cd19a|0ca43230] (032+095/231) Accurately ripped
09 [1c23cf6f|1bb7c04a] (032+095/231) Accurately ripped
Offsetted by -635:
01 [6ccdfe28] (015/229) Accurately ripped
02 [6d43a478] (015/233) Accurately ripped
03 [8b19d296] (015/230) Accurately ripped
04 [63395353] (015/232) Accurately ripped
05 [5989c4b0] (015/232) Accurately ripped
06 [1abeaa2f] (015/232) Accurately ripped
07 [39299635] (015/230) Accurately ripped
08 [e7a77c47] (015/231) Accurately ripped
09 [dcdced05] (015/231) Accurately ripped

Track Peak [ CRC32 ] [W/O NULL] [ LOG ]
– 99,8 [B5A82F14] [E0DBE82D] CRC32
01 99,8 [1D988BE7] [934DFE7F]
02 99,8 [5BAF3DFF] [DB73AA47]
03 99,8 [050BD58A] [01F8386F]
04 99,8 [B35586C7] [A1607A17]
05 99,8 [54E109D1] [94BE2633]
06 99,8 [CB15C001] [0C9EA709]
07 99,8 [A6AD1B04] [653EAF06]
08 99,8 [79C71D61] [5C4EF50D]
09 97,6 [4640B43A] [7BBF0271]


Jeff Beck - Original Album Classics (2008) [5CD Box Set]

Tracklist CD4 - 1976 Wired:

1. Led Boots
2. Come Dancing
3. Goodbye Pork Pie Hat
4. Head For Backstage Pass
5. Blue Wind
6. Sophie
7. Play With Me
8. Love Is Green

Exact Audio Copy V1.0 beta 2 from 29. April 2011

EAC extraction logfile from 25. July 2011, 17:42

Jeff Beck / Wired

Used drive : HL-DT-STDVDRAM GSA-H60N Adapter: 2 ID: 0

Read mode : Secure
Utilize accurate stream : Yes
Defeat audio cache : Yes
Make use of C2 pointers : No

Read offset correction : 667
Overread into Lead-In and Lead-Out : No
Fill up missing offset samples with silence : Yes
Delete leading and trailing silent blocks : No
Null samples used in CRC calculations : Yes
Used interface : Native Win32 interface for Win NT & 2000

Used output format : Internal WAV Routines
Sample format : 44.100 Hz; 16 Bit; Stereo


TOC of the extracted CD

Track | Start | Length | Start sector | End sector
––––––––––––––––––––––––––––-
1 | 0:00.00 | 4:03.62 | 0 | 18286
2 | 4:03.62 | 5:55.18 | 18287 | 44929
3 | 9:59.05 | 5:31.10 | 44930 | 69764
4 | 15:30.15 | 2:43.30 | 69765 | 82019
5 | 18:13.45 | 5:54.70 | 82020 | 108639
6 | 24:08.40 | 6:31.30 | 108640 | 137994
7 | 30:39.70 | 4:10.52 | 137995 | 156796
8 | 34:50.47 | 2:30.73 | 156797 | 168119


Range status and errors

Selected range

Filename C:\Documents and Settings\Администратор\Рабочий стол\Rip by ALLexxess\Jeff Beck\2008 Original Album Classics\1976 Wired\Jeff Beck - Wired.wav

Peak level 100.0 %
Extraction speed 5.5 X
Range quality 100.0 %
Test CRC B1808B0B
Copy CRC B1808B0B
Copy OK

No errors occurred


AccurateRip summary

Track 1 accurately ripped (confidence 6) [DE808754] (AR v2)
Track 2 accurately ripped (confidence 6) [FD04D65E] (AR v2)
Track 3 accurately ripped (confidence 6) [FEEB04AB] (AR v2)
Track 4 accurately ripped (confidence 6) [0D3EB7D3] (AR v2)
Track 5 accurately ripped (confidence 6) [99CF28CC] (AR v2)
Track 6 accurately ripped (confidence 6) [C6A54641] (AR v2)
Track 7 accurately ripped (confidence 6) [E4C2ABCF] (AR v2)
Track 8 accurately ripped (confidence 6) [49F5DC79] (AR v2)

All tracks accurately ripped

End of status report

==== Log checksum AC2DB25860314C38E9446A128002BC392052E8675A0F5EFEDDD8DCA122D5AB83 ====


[CUETools log; Date: 04.03.2018 13:52:57; Version: 2.1.5]
[CTDB TOCID: jBi3ge2F3pdjWnt4OWTZj5JmISI-] found.
Track | CTDB Status
1 | (460/470) Accurately ripped, or (3/470) differs in 240 samples @03:14:23-03:14:24
2 | (464/470) Accurately ripped
3 | (467/470) Accurately ripped
4 | (460/470) Accurately ripped, or (3/470) differs in 278 samples @00:58:14,01:19:37-01:19:38
5 | (460/470) Accurately ripped, or (3/470) differs in 239 samples @00:00:60-00:00:61
6 | (460/470) Accurately ripped, or (3/470) differs in 287 samples @04:02:28-04:02:29
7 | (461/470) Accurately ripped
8 | (459/470) Accurately ripped
[AccurateRip ID: 000c007a-00500b5a-5608c108] found.
Track [ CRC | V2 ] Status
01 [ba39c057|de808754] (042+100/504) Accurately ripped
02 [7257d3e5|fd04d65e] (042+100/506) Accurately ripped
03 [745423fa|feeb04ab] (042+101/509) Accurately ripped
04 [b03a2693|0d3eb7d3] (042+100/504) Accurately ripped
05 [8b8b6ac5|99cf28cc] (042+100/506) Accurately ripped
06 [0aa9240f|c6a54641] (042+100/504) Accurately ripped
07 [100b16ca|e4c2abcf] (042+100/505) Accurately ripped
08 [766ddbaa|49f5dc79] (042+099/501) Accurately ripped
Offsetted by -654:
01 [cefb9413] (005/504) Accurately ripped
02 [515d19eb] (006/506) Accurately ripped
03 [aac28486] (006/509) Accurately ripped
04 [39785239] (006/504) Accurately ripped
05 [66fa53f9] (006/506) Accurately ripped
06 [28ff1067] (006/504) Accurately ripped
07 [91996d04] (006/505) Accurately ripped
08 [02e42a5a] (006/501) Accurately ripped
Offsetted by -599:
01 [19913f55] (058/504) Accurately ripped
02 [4285c238] (059/506) Accurately ripped
03 [0a63e6e0] (060/509) Accurately ripped
04 [967122b6] (058/504) Accurately ripped
05 [d1c8aebf] (059/506) Accurately ripped
06 [039b757b] (059/504) Accurately ripped
07 [1e94e497] (059/505) Accurately ripped
08 [940b8982] (057/501) Accurately ripped
Offsetted by -511:
01 [90e71e25] (003/504) Accurately ripped
02 [2ac6cf80] (003/506) Accurately ripped
03 [3cffb770] (003/509) Accurately ripped
04 [5e65a37e] (003/504) Accurately ripped
05 [7cac732f] (003/506) Accurately ripped
06 [61627d9b] (003/504) Accurately ripped
07 [ccf40a4f] (003/505) Accurately ripped
08 [15e421c2] (003/501) Accurately ripped
Offsetted by 175:
01 [90448429] (031/504) Accurately ripped
02 [e607bcda] (033/506) Accurately ripped
03 [bbe145a4] (032/509) Accurately ripped
04 [ef51d538] (031/504) Accurately ripped
05 [3c79173b] (031/506) Accurately ripped
06 [369ac2c3] (032/504) Accurately ripped
07 [e7e564b5] (032/505) Accurately ripped
08 [15bc9612] (031/501) Accurately ripped
Offsetted by 178:
01 [da277193] (040/504) Accurately ripped
02 [fc7e51ab] (040/506) Accurately ripped
03 [14e0c406] (040/509) Accurately ripped
04 [e1c5cdf9] (039/504) Accurately ripped
05 [2b06ac79] (039/506) Accurately ripped
06 [e5701767] (039/504) Accurately ripped
07 [76915d44] (040/505) Accurately ripped
08 [42e3f85a] (039/501) Accurately ripped
Offsetted by 813:
01 [f173138d] (005/504) Accurately ripped
02 [39df5d24] (005/506) Accurately ripped
03 [aacaedb8] (005/509) Accurately ripped
04 [58fe7ae2] (005/504) Accurately ripped
05 [136c6767] (005/506) Accurately ripped
06 [1e7dbdab] (005/504) Accurately ripped
07 [1817362b] (005/505) Accurately ripped
08 [431ee5e2] (004/501) Accurately ripped
Offsetted by -635:
01 [a2ee1e5d] (000/504) No match (V2 was not tested)
02 [34f6c86c] (000/506) No match (V2 was not tested)
03 [de69fa48] (000/509) No match (V2 was not tested)
04 [390179aa] (000/504) No match (V2 was not tested)
05 [a325afd7] (000/506) No match (V2 was not tested)
06 [d19b7dcb] (000/504) No match (V2 was not tested)
07 [6e853de3] (000/505) No match (V2 was not tested)
08 [7632ee22] (000/501) No match (V2 was not tested)

Track Peak [ CRC32 ] [W/O NULL] [ LOG ]
– 100,0 [B1808B0B] [DAAD1205] CRC32
01 99,9 [267E054C] [F1E83932]
02 99,9 [97380619] [EFE46C6C]
03 100,0 [70746D39] [EF00E824]
04 99,9 [D96B290A] [824CD95B]
05 99,9 [1E2773EE] [31C61C87]
06 99,9 [E5CBABF8] [6FC5A632]
07 99,9 [0A068677] [24B23843]
08 81,1 [20FB4E57] [6F1F4549]


Jeff Beck - Original Album Classics (2008) [5CD Box Set]

Tracklist CD5 - 1977 Jeff Beck With The Jan Hammer Group Live:

1. Freeway Jam
2. Earth (Still Our Only Home)
3. She's A Woman
4. Full Moon Boogie
5. Darkness / Earth In Search Of A Sun
6. Scatterbrain
7. Blue Wind

Exact Audio Copy V1.0 beta 2 from 29. April 2011

EAC extraction logfile from 24. July 2011, 10:31

Jeff Beck With The Jan Hammer Group / Jeff Beck With The Jan Hammer Group Live

Used drive : HL-DT-STDVDRAM GSA-H60N Adapter: 2 ID: 0

Read mode : Secure
Utilize accurate stream : Yes
Defeat audio cache : Yes
Make use of C2 pointers : No

Read offset correction : 667
Overread into Lead-In and Lead-Out : No
Fill up missing offset samples with silence : Yes
Delete leading and trailing silent blocks : No
Null samples used in CRC calculations : Yes
Used interface : Native Win32 interface for Win NT & 2000

Used output format : Internal WAV Routines
Sample format : 44.100 Hz; 16 Bit; Stereo


TOC of the extracted CD

Track | Start | Length | Start sector | End sector
––––––––––––––––––––––––––––-
1 | 0:00.32 | 7:23.20 | 32 | 33276
2 | 7:23.52 | 4:36.28 | 33277 | 54004
3 | 12:00.05 | 4:26.42 | 54005 | 73996
4 | 16:26.47 | 6:08.68 | 73997 | 101664
5 | 22:35.40 | 7:53.25 | 101665 | 137164
6 | 30:28.65 | 7:27.12 | 137165 | 170701
7 | 37:56.02 | 6:35.30 | 170702 | 200356


Range status and errors

Selected range

Filename C:\Documents and Settings\Администратор\Рабочий стол\Rip by ALLexxess\Jeff Beck\2008 Original Album Classics\1977 Jeff Beck & Jan Hammer Group\Jeff Beck & Jan Hammer Group Live.wav

Peak level 100.0 %
Extraction speed 5.8 X
Range quality 100.0 %
Test CRC BE042A2B
Copy CRC BE042A2B
Copy OK

No errors occurred


AccurateRip summary

Track 1 accurately ripped (confidence 5) [A715583E] (AR v2)
Track 2 accurately ripped (confidence 6) [4931C679] (AR v2)
Track 3 accurately ripped (confidence 6) [A5C808F2] (AR v2)
Track 4 accurately ripped (confidence 6) [24F42696] (AR v2)
Track 5 accurately ripped (confidence 6) [234E059F] (AR v2)
Track 6 accurately ripped (confidence 5) [61133241] (AR v2)
Track 7 accurately ripped (confidence 6) [2EE3D0EF] (AR v2)

All tracks accurately ripped

End of status report

==== Log checksum 0FF599B01ABCA81FDE4298D850AF1FD013DB2CE00733A1FFDF0AFEA35774AB4C ====


[CUETools log; Date: 04.03.2018 13:53:25; Version: 2.1.5]
Pregap length 00:00:32.
[CTDB TOCID: hk09Y8AV4hoQ9SDswzqYYYw1WGw-] found.
Track | CTDB Status
1 | (129/130) Accurately ripped
2 | (129/130) Accurately ripped
3 | (129/130) Accurately ripped
4 | (129/130) Accurately ripped
5 | (129/130) Accurately ripped
6 | (129/130) Accurately ripped
7 | (129/130) Accurately ripped
[AccurateRip ID: 000bc480-0047026a-620a6f07] found.
Track [ CRC | V2 ] Status
01 [9e7ad9b8|a715583e] (034+100/164) Accurately ripped
02 [fcdadf9c|4931c679] (035+101/169) Accurately ripped
03 [9ee2eddc|a5c808f2] (035+101/168) Accurately ripped
04 [8ac6230f|24f42696] (035+101/168) Accurately ripped
05 [2bf499f7|234e059f] (035+101/168) Accurately ripped
06 [46a68366|61133241] (035+101/167) Accurately ripped
07 [5f0a9942|2ee3d0ef] (035+101/168) Accurately ripped
Offsetted by 633:
01 [645da02f] (007/164) Accurately ripped
02 [5f2cec55] (007/169) Accurately ripped
03 [6cd29eb4] (006/168) Accurately ripped
04 [ad560816] (006/168) Accurately ripped
05 [9684707f] (006/168) Accurately ripped
06 [eb1865f1] (006/167) Accurately ripped
07 [76105898] (007/168) Accurately ripped
Offsetted by -36:
01 [c5f50f78] (000/164) No match (V2 was not tested)
02 [bb54f302] (000/169) No match (V2 was not tested)
03 [50c08e20] (000/168) No match (V2 was not tested)
04 [048b739c] (000/168) No match (V2 was not tested)
05 [882a9154] (000/168) No match (V2 was not tested)
06 [ce1e81dd] (000/167) No match (V2 was not tested)
07 [78513533] (000/168) No match (V2 was not tested)
Offsetted by -20:
01 [432fcd4e] (000/164) No match (V2 was not tested)
02 [23afe976] (003/169) Accurately ripped
03 [af4d7e9b] (003/168) Accurately ripped
04 [23a9c30d] (003/168) Accurately ripped
05 [25d180e8] (003/168) Accurately ripped
06 [f9f68660] (002/167) Accurately ripped
07 [f52f936a] (003/168) Accurately ripped

Track Peak [ CRC32 ] [W/O NULL] [ LOG ]
– 100,0 [BE042A2B] [7189C421] CRC32
01 99,2 [64CBCA30] [19FF521E]
02 98,4 [DC50C14E] [6290CC7A]
03 100,0 [55F4ABD7] [E2CCAB8E]
04 98,1 [1CD14385] [9338548F]
05 100,0 [26BC3C6B] [EDA95AF3]
06 100,0 [E601B4A1] [B7C99C9E]
07 97,5 [3D30ED06] [7E7CB391]


Jeff Beck - Original Album Classics (2008) [5CD Box Set]

All thanks go to ALLexxess

Jeff Beck or Jeff Beck in my Blog

Download Jeff Beck - Original Album Classics (2008):