Subcategories

Jeff Berlin & Vox Humana - Champion (1985)

Posted By: v3122
Jeff Berlin & Vox Humana - Champion (1985)

Jeff Berlin & Vox Humana - Champion (1985)
EAC | Flac(Image) + Cue + Log & MP3 CBR 320Kbps
Passport Jazz, PJCD 88004 | ~ 269 or 112 Mb | Scans Included
Jazz Fusion

A flexible and powerful electric bassist, Jeff Berlin was one of the major fusion bassist to emerge during the mid-'70s. His father sang opera and his mother played piano. Berlin had nine years of violin lessons starting from when he was five and was considered a child prodigy, appearing with orchestras in New York City. However, when he was 14 he switched directions and began playing electric bass; Jack Bruce was an early hero. Berlin attended the Berklee College of Music for a time and then moved back to New York. For a short period he was in a trio with Allan Holdsworth and Tony Williams. In 1975 he recorded in Europe with Yes keyboardist Patrick Moraz and then in New York he became quite busy with studio work, club dates, and record sessions. Berlin played with many top musicians including Pat Martino, Gil Evans, Toots Thielemans, Al DiMeola, George Benson, Earl Klugh, Larry Coryell, Bob James, Dave Liebman, Herbie Mann, Ray Barretto, the Brecker Brothers and others. Berlin was also a regular member of Bill Bruford's band (which included guitarist Holdsworth and keyboardist Dave Stewart) for a couple years starting in 1977; four recordings resulted.

Berlin subsequently moved to Los Angeles, worked in clubs with Scott Henderson and Frank Gambale, became an educator (helping to found the Bass Institute of Technology), played rock (including with Frank Zappa), and turned down an opportunity to join Van Halen. During 1985-1986 Berlin recorded two fusion/rock dates for the soon-defunct Passport label. He moved to Florida in 1990 and toured with Yes, John McLaughlin, Billy Cobham, Kazumi Watanabe, and other musicians from a wide variety of creative genres. In addition, he began teaching at the Players School. His third set as a leader, 1997's Taking Notes for Denon, was Berlin's most jazz-oriented set to date. He continued releasing a number of albums into the 21st century, including Lumpy Jazz (2004) with his core trio featuring pianist Richard Drexler and drummer Danny Gottlieb; the highly regarded In Harmony's Way (2004) with guest appearances by saxophonist David Liebman, vibraphonist Gary Burton, and guitarist Mike Stern; Ace of Bass/Aneurythms (2006); and the piano trio-oriented High Standards (2010), again featuring Drexler and Gottlieb in addition to the session leader.

by Scott Yanow, AMG
Jeff Berlin & Vox Humana - Champion (1985)


Jeff Berlin & Vox Humana - Champion (1985):

Jeff Berlin & Vox Humana - Champion (1985)

Tracklist:

1. Motherlode (5:33)
2. 20,000 Prayers (6:11)
3. Marabi (5:37)
4. Subway Music (3:55)
5. Three Nighter (5:18)
6. Dixie (3:27)
7. What I Know Now (5:15)
8. Champion (4:42)

Musicians:

Bass: Jeff Berlin
Guitars: Scott Henderson, Neil Schon
Drums: Steve Smith, Neil Peart
Keyboards: T.Lavitz, Clare Fischer, Walter Afanasieff, Jeff Berlin
Vocals: Keith England, Roger Love
Background vocals: Jeff Berlin, Ronnie Montrose, Paul Kingery


Exact Audio Copy V1.0 beta 3 from 29. August 2011

EAC extraction logfile from 2. November 2012, 19:54

Jeff Berlin / Champion

Used drive : HL-DT-STBDDVDRW GBC-H20N Adapter: 1 ID: 0

Read mode : Secure
Utilize accurate stream : Yes
Defeat audio cache : Yes
Make use of C2 pointers : No

Read offset correction : 667
Overread into Lead-In and Lead-Out : No
Fill up missing offset samples with silence : Yes
Delete leading and trailing silent blocks : No
Null samples used in CRC calculations : Yes
Used interface : Native Win32 interface for Win NT & 2000

Used output format : User Defined Encoder
Selected bitrate : 1024 kBit/s
Quality : High
Add ID3 tag : No
Command line compressor : C:\Program Files\Exact Audio Copy\wavpack.exe
Additional command line options : -hm %source% %dest%


TOC of the extracted CD

Track | Start | Length | Start sector | End sector
––––––––––––––––––––––––––––-
1 | 0:00.00 | 5:32.62 | 0 | 24961
2 | 5:32.62 | 6:10.38 | 24962 | 52749
3 | 11:43.25 | 5:36.57 | 52750 | 78006
4 | 17:20.07 | 3:55.18 | 78007 | 95649
5 | 21:15.25 | 5:17.50 | 95650 | 119474
6 | 26:33.00 | 3:27.00 | 119475 | 134999
7 | 30:00.00 | 5:14.62 | 135000 | 158611
8 | 35:14.62 | 4:42.28 | 158612 | 179789


Range status and errors

Selected range

Filename C:\Users\ProgDog\Music\ZALIVKI\Scott Henderson - Tribal Tech\5 - Other\1985 - Jeff Berlin - Champion\Jeff Berlin - Champion.wav

Peak level 98.2 %
Extraction speed 5.7 X
Range quality 100.0 %
Test CRC F71BAC9D
Copy CRC F71BAC9D
Copy OK

No errors occurred


AccurateRip summary

Track 1 accurately ripped (confidence 2) [2342B971] (AR v2)
Track 2 accurately ripped (confidence 2) [68C3E377] (AR v2)
Track 3 accurately ripped (confidence 2) [CFDEA115] (AR v2)
Track 4 accurately ripped (confidence 2) [D8637997] (AR v2)
Track 5 accurately ripped (confidence 2) [B8BD9838] (AR v2)
Track 6 accurately ripped (confidence 2) [29C4550D] (AR v2)
Track 7 accurately ripped (confidence 2) [48554DF6] (AR v2)
Track 8 accurately ripped (confidence 2) [E8CA136C] (AR v2)

All tracks accurately ripped

End of status report

–– CUETools DB Plugin V2.1.3

[CTDB TOCID: Czp2YUrgcQTVzhX620aXplKEyH8-] database access error: The operation has timed out


==== Log checksum 5C0FF469027C206FEAA11AB5974E711F9CC69262474B558D1F84C3AFFF138E48 ====

foobar2000 1.2.9 / Dynamic Range Meter 1.1.1
log date: 2015-12-10 21:02:22

––––––––––––––––––––––––––––––––––––––––
Analyzed: Jeff Berlin / Champion
––––––––––––––––––––––––––––––––––––––––

DR Peak RMS Duration Track
––––––––––––––––––––––––––––––––––––––––
DR10 -0.15 dB -12.32 dB 5:33 01-Motherlode
DR11 -0.17 dB -13.26 dB 6:11 02-20,000 Prayers
DR11 -0.17 dB -14.07 dB 5:37 03-Marabi
DR10 -0.17 dB -11.43 dB 3:55 04-Subway Music
DR10 -0.17 dB -11.82 dB 5:18 05-Three Nighter
DR14 -1.80 dB -17.84 dB 3:27 06-Dixie
DR10 -0.17 dB -12.30 dB 5:15 07-What I Know Now
DR10 -0.17 dB -12.20 dB 4:42 08-Champion
––––––––––––––––––––––––––––––––––––––––

Number of tracks: 8
Official DR value: DR11

Samplerate: 44100 Hz
Channels: 2
Bits per sample: 16
Bitrate: 852 kbps
Codec: FLAC

[CUETools log; Date: 10.12.2015 21:02:32; Version: 2.1.4]
[CTDB TOCID: Czp2YUrgcQTVzhX620aXplKEyH8-] found.
Track | CTDB Status
1 | (2/2) Accurately ripped
2 | (2/2) Accurately ripped
3 | (2/2) Accurately ripped
4 | (2/2) Accurately ripped
5 | (2/2) Accurately ripped
6 | (2/2) Accurately ripped
7 | (2/2) Accurately ripped
8 | (2/2) Accurately ripped
[AccurateRip ID: 000ce1d6-0054a52d-59095d08] found.
Track [ CRC | V2 ] Status
01 [dfe01185|2342b971] (2+2/4) Accurately ripped
02 [2df70794|68c3e377] (2+2/4) Accurately ripped
03 [39abb4c7|cfdea115] (2+2/4) Accurately ripped
04 [fb88608d|d8637997] (2+2/4) Accurately ripped
05 [21e48bf7|b8bd9838] (2+2/4) Accurately ripped
06 [793cc4be|29c4550d] (2+2/4) Accurately ripped
07 [2cb874dc|48554df6] (2+2/4) Accurately ripped
08 [7ed4b5c3|e8ca136c] (2+2/4) Accurately ripped

Track Peak [ CRC32 ] [W/O NULL] [ LOG ]
– 98,2 [F71BAC9D] [AA985A60] CRC32
01 98,2 [3422D138] [DEA0AB2F]
02 98,0 [DFED9CED] [B4629F18]
03 98,0 [AABD5348] [B6DE3DFF]
04 98,0 [7B796F55] [0AAF54D4]
05 98,0 [11A7E87E] [D09431A5]
06 81,2 [72719411] [8F03E2ED]
07 98,0 [D08EA01A] [7C604B5A]
08 98,0 [5126A2F3] [3B8BCA5C]

Jeff Berlin & Vox Humana - Champion (1985)

All thanks go to AD's

Download Jeff Berlin & Vox Humana - Champion (1985):