Subcategories

Jeff Ballard Trio - Time's Tales (2013) {Okeh}

Posted By: tiburon
Jeff Ballard Trio - Time's Tales (2013) {Okeh}

Jeff Ballard Trio - Time's Tales (2013) {Okeh}
EAC 1.0b2 | FLAC tracks level 8 | Cue+Log+M3U | Scans 300dpi | 326MB + 5% Recovery
Genre: Jazz

There could hardly be a better start for the new year – the 2014 jazz season will be opened by none other than Jeff Ballard, together with outstanding guitarist Lionel Loueke and the great Miguel Zenon on saxophone. Their first ever album collaboration “Time’s Tales” offers a varied repartoire from Thelonious Monk to Iranian folk melodies, with influences from Bartok, Duke Ellington, George Gershwin, Stevie Wonder and more. At the same time, it reflects the musicians’ different geographic backgrounds – the USA, Benin and Puerto Rico.
Track List
01. Virgin Forest 7:44
02. Western Wren (A Bird Call) 3:23
03. Beat Street 7:16
04. The Man I Love 5:53
05. Free 1 0:47
06. Hangin Tree 7:23
07. Dal (A Rhythm Song) 5:52
08. El Reparador De Suenos 7:35
09. Mivakpola 4:34
10. Free 3 6:01

musicians
Jeff Ballard - drums, percussion
Lionel Loueke - guitar, voice
Miguel Zenon - alto sax


Exact Audio Copy V1.0 beta 2 from 29. April 2011

EAC extraction logfile from 3. December 2013, 22:46

Jeff Ballard / Time's Tales

Used drive : HL-DT-STDVDRAM GH24NS50 Adapter: 0 ID: 0

Read mode : Secure
Utilize accurate stream : Yes
Defeat audio cache : Yes
Make use of C2 pointers : No

Read offset correction : 667
Overread into Lead-In and Lead-Out : No
Fill up missing offset samples with silence : Yes
Delete leading and trailing silent blocks : No
Null samples used in CRC calculations : Yes
Used interface : Installed external ASPI interface
Gap handling : Appended to previous track

Used output format : User Defined Encoder
Selected bitrate : 768 kBit/s
Quality : High
Add ID3 tag : No
Command line compressor : E:\Programmi\Exact Audio Copy\Flac\flac.exe
Additional command line options : -8 -V -T "ARTIST=%artist%" -T "TITLE=%title%" -T "ALBUM=%albumtitle%" -T "DATE=%year%" -T "TRACKNUMBER=%tracknr%" -T "TOTALTRACKS=%numtracks%" -T "GENRE=%genre%" -T "ALBUMARTIST=%albumartist%" -T "ALBUM ARTIST=%albumartist%


TOC of the extracted CD

Track | Start | Length | Start sector | End sector
––––––––––––––––––––––––––––-
1 | 0:00.00 | 7:42.22 | 0 | 34671
2 | 7:42.22 | 3:23.39 | 34672 | 49935
3 | 11:05.61 | 7:16.70 | 49936 | 82705
4 | 18:22.56 | 5:52.74 | 82706 | 109179
5 | 24:15.55 | 0:47.37 | 109180 | 112741
6 | 25:03.17 | 7:23.15 | 112742 | 145981
7 | 32:26.32 | 5:52.37 | 145982 | 172418
8 | 38:18.69 | 7:35.03 | 172419 | 206546
9 | 45:53.72 | 4:34.52 | 206547 | 227148
10 | 50:28.49 | 6:01.67 | 227149 | 254290


Track 1

Filename C:\Documents and Settings\user\Desktop\Jeff Ballard Trio - Time's Tales (2013) [FLAC] {Okeh}\01 - Virgin Forest.wav

Pre-gap length 0:00:02.00

Peak level 95.5 %
Extraction speed 1.2 X
Track quality 100.0 %
Test CRC A6B945EE
Copy CRC A6B945EE
Track not present in AccurateRip database
Copy OK

Track 2

Filename C:\Documents and Settings\user\Desktop\Jeff Ballard Trio - Time's Tales (2013) [FLAC] {Okeh}\02 - Western Wren The Bird Call.wav

Peak level 98.8 %
Extraction speed 1.0 X
Track quality 99.9 %
Test CRC E14350DD
Copy CRC E14350DD
Track not present in AccurateRip database
Copy OK

Track 3

Filename C:\Documents and Settings\user\Desktop\Jeff Ballard Trio - Time's Tales (2013) [FLAC] {Okeh}\03 - Beat Street.wav

Peak level 98.8 %
Extraction speed 1.2 X
Track quality 99.9 %
Test CRC B7EB2E78
Copy CRC B7EB2E78
Track not present in AccurateRip database
Copy OK

Track 4

Filename C:\Documents and Settings\user\Desktop\Jeff Ballard Trio - Time's Tales (2013) [FLAC] {Okeh}\04 - The Man I Love.wav

Peak level 93.3 %
Extraction speed 1.6 X
Track quality 100.0 %
Test CRC 3A675846
Copy CRC 3A675846
Track not present in AccurateRip database
Copy OK

Track 5

Filename C:\Documents and Settings\user\Desktop\Jeff Ballard Trio - Time's Tales (2013) [FLAC] {Okeh}\05 - Free 1.wav

Peak level 98.8 %
Extraction speed 0.9 X
Track quality 100.0 %
Test CRC F5CCAB0B
Copy CRC F5CCAB0B
Track not present in AccurateRip database
Copy OK

Track 6

Filename C:\Documents and Settings\user\Desktop\Jeff Ballard Trio - Time's Tales (2013) [FLAC] {Okeh}\06 - Hangin Tree.wav

Peak level 98.2 %
Extraction speed 1.6 X
Track quality 99.9 %
Test CRC 72617440
Copy CRC 72617440
Track not present in AccurateRip database
Copy OK

Track 7

Filename C:\Documents and Settings\user\Desktop\Jeff Ballard Trio - Time's Tales (2013) [FLAC] {Okeh}\07 - Dal A Rhythm Song.wav

Suspicious position 0:00:00

Peak level 92.1 %
Extraction speed 1.1 X
Track quality 99.7 %
Test CRC 60B4301B
Copy CRC 60B4301B
Track not present in AccurateRip database
Copy finished

Track 8

Filename C:\Documents and Settings\user\Desktop\Jeff Ballard Trio - Time's Tales (2013) [FLAC] {Okeh}\08 - El Reparador De Suenos.wav

Peak level 97.3 %
Extraction speed 2.0 X
Track quality 100.0 %
Test CRC A2F04312
Copy CRC A2F04312
Track not present in AccurateRip database
Copy OK

Track 9

Filename C:\Documents and Settings\user\Desktop\Jeff Ballard Trio - Time's Tales (2013) [FLAC] {Okeh}\09 - Mivakpola.wav

Peak level 93.6 %
Extraction speed 2.0 X
Track quality 100.0 %
Test CRC D3B56F4E
Copy CRC D3B56F4E
Track not present in AccurateRip database
Copy OK

Track 10

Filename C:\Documents and Settings\user\Desktop\Jeff Ballard Trio - Time's Tales (2013) [FLAC] {Okeh}\10 - Free 3.wav

Peak level 96.4 %
Extraction speed 2.0 X
Track quality 99.9 %
Test CRC 44CBB321
Copy CRC 44CBB321
Track not present in AccurateRip database
Copy OK


None of the tracks are present in the AccurateRip database

There were errors

End of status report

==== Log checksum 26A473E6305588C2A716C4B6CE727A9A01B46230399D6ABFA48CDDBA26AF2826 ====


––––––––––––––––––––––––––––––––––––––––
Analyzed: Jeff Ballard / Time's Tales
––––––––––––––––––––––––––––––––––––––––

DR Peak RMS Duration Track
––––––––––––––––––––––––––––––––––––––––
DR10 -0.40 dB -13.25 dB 7:42 01-Virgin Forest
DR13 -0.10 dB -15.54 dB 3:24 02-Western Wren The Bird Call
DR12 -0.10 dB -14.47 dB 7:17 03-Beat Street
DR13 -0.59 dB -17.79 dB 5:53 04-The Man I Love
DR14 -0.10 dB -18.26 dB 0:47 05-Free 1
DR9 -0.15 dB -9.80 dB 7:23 06-Hangin Tree
DR14 -0.71 dB -17.38 dB 5:52 07-Dal A Rhythm Song
DR11 -0.24 dB -14.48 dB 7:35 08-El Reparador De Suenos
DR14 -0.57 dB -18.02 dB 4:35 09-Mivakpola
DR12 -0.31 dB -16.12 dB 6:02 10-Free 3
––––––––––––––––––––––––––––––––––––––––

Number of tracks: 10
Official DR value: DR12

Samplerate: 44100 Hz
Channels: 2
Bits per sample: 16
Bitrate: 787 kbps
Codec: FLAC
================================================================================

Jeff Ballard Trio - Time's Tales (2013) {Okeh}
Jeff Ballard Trio - Time's Tales (2013) {Okeh}
Jeff Ballard Trio - Time's Tales (2013) {Okeh}


Rip by cifelius