Subcategories

Jeff Berlin - Low Standards (2013)

Posted By: tiburon
Jeff Berlin - Low Standards (2013)

Jeff Berlin - Low Standards (2013)
EAC 1.0b3 | FLAC tracks level 8 | Cue+Log+M3U | Full Scans 300dpi | 303MB + 5% Recovery
Genre: Jazz, Fusion, Post-Bop

Indeed, bassist and educator Jeff Berlin is a modern era pioneer amid accolades that have piled high, spanning several decades via his astounding technique and contributions to progressive-rock, jazz fusion and modern mainstream jazz. Following up his jazz trio outing High Standards (2010, M.A.J. Records) also featuring bassist, pianist Richard Drexler, the core differentiator on Low Standards is that renowned drummer Mike Clark takes over the drum chair from Danny Gottlieb. Yet Berlin's game-plan is similar as Drexler uses the bass for a support role while toggling between piano duties. Nonetheless, the star of the show and lead soloist is Berlin, performing exclusively on electric bass.
Track List
01. E.S.P. 4:52
02. El Gaucho 5:10
03. Falling Grace 5:32
04. Fee Fi Fo Fum 6:14
05. Vashkar 4:26
06. Very Early 6:25
07. Whisper Not 6:00
08. James 6:03

musicians
Jeff Berlin - electic bass
Richard Drexler - piano and acoustic bass
Mike Clark - drums

Produced by David Ruttenberg


Exact Audio Copy V1.0 beta 3 from 29. August 2011

EAC extraction logfile from 5. May 2013, 12:31

Jeff Berlin / Low Standards

Used drive : TSSTcorpCDDVDW SH-224BB Adapter: 1 ID: 0

Read mode : Secure
Utilize accurate stream : Yes
Defeat audio cache : Yes
Make use of C2 pointers : No

Read offset correction : 6
Overread into Lead-In and Lead-Out : No
Fill up missing offset samples with silence : Yes
Delete leading and trailing silent blocks : No
Null samples used in CRC calculations : Yes
Used interface : Native Win32 interface for Win NT & 2000
Gap handling : Appended to previous track

Used output format : User Defined Encoder
Selected bitrate : 128 kBit/s
Quality : High
Add ID3 tag : No
Command line compressor : C:\Program Files (x86)\Exact Audio Copy\Flac\flac.exe
Additional command line options : -V -8 -T "Genre=%genre%" -T "Artist=%artist%" -T "Title=%title%" -T "Album=%albumtitle%" -T "Date=%year%" -T "Tracknumber=%tracknr%" -T "Comment=%comment%" %source%


TOC of the extracted CD

Track | Start | Length | Start sector | End sector
––––––––––––––––––––––––––––-
1 | 0:00.00 | 4:52.32 | 0 | 21931
2 | 4:52.32 | 5:10.34 | 21932 | 45215
3 | 10:02.66 | 5:32.25 | 45216 | 70140
4 | 15:35.16 | 6:14.30 | 70141 | 98220
5 | 21:49.46 | 4:26.11 | 98221 | 118181
6 | 26:15.57 | 6:24.58 | 118182 | 147039
7 | 32:40.40 | 6:00.14 | 147040 | 174053
8 | 38:40.54 | 6:03.21 | 174054 | 201299


Track 1

Filename D:\!Torrent upload\Jeff Berlin - Low Standards (2013)\01. E.S.P..wav

Pre-gap length 0:00:02.00

Peak level 97.7 %
Extraction speed 1.7 X
Track quality 100.0 %
Test CRC A2494324
Copy CRC A2494324
Copy OK

Track 2

Filename D:\!Torrent upload\Jeff Berlin - Low Standards (2013)\02. El Gaucho.wav

Pre-gap length 0:00:01.74

Peak level 97.7 %
Extraction speed 2.0 X
Track quality 100.0 %
Test CRC 8DA2DC23
Copy CRC 8DA2DC23
Copy OK

Track 3

Filename D:\!Torrent upload\Jeff Berlin - Low Standards (2013)\03. Falling Grace.wav

Pre-gap length 0:00:01.74

Peak level 97.7 %
Extraction speed 2.0 X
Track quality 99.9 %
Test CRC 2833B607
Copy CRC 2833B607
Copy OK

Track 4

Filename D:\!Torrent upload\Jeff Berlin - Low Standards (2013)\04. Fee Fi Fo Fum.wav

Pre-gap length 0:00:01.74

Peak level 97.7 %
Extraction speed 2.5 X
Track quality 100.0 %
Test CRC C9D53E27
Copy CRC C9D53E27
Copy OK

Track 5

Filename D:\!Torrent upload\Jeff Berlin - Low Standards (2013)\05. Vashkar.wav

Pre-gap length 0:00:01.74

Peak level 97.7 %
Extraction speed 2.6 X
Track quality 100.0 %
Test CRC 99338174
Copy CRC 99338174
Copy OK

Track 6

Filename D:\!Torrent upload\Jeff Berlin - Low Standards (2013)\06. Very Early.wav

Pre-gap length 0:00:01.74

Peak level 97.7 %
Extraction speed 2.6 X
Track quality 99.9 %
Test CRC F43A1227
Copy CRC F43A1227
Copy OK

Track 7

Filename D:\!Torrent upload\Jeff Berlin - Low Standards (2013)\07. Whisper Not.wav

Pre-gap length 0:00:01.74

Peak level 97.7 %
Extraction speed 2.8 X
Track quality 99.9 %
Test CRC 96584554
Copy CRC 96584554
Copy OK

Track 8

Filename D:\!Torrent upload\Jeff Berlin - Low Standards (2013)\08. James.wav

Pre-gap length 0:00:01.74

Peak level 97.7 %
Extraction speed 3.2 X
Track quality 100.0 %
Test CRC E6017AA6
Copy CRC E6017AA6
Copy OK

No errors occurred

End of status report

==== Log checksum A3EFD301A7AF2EADC365B31D53E59BBA338375D524B6EFCD916618BF74272B4E ====


––––––––––––––––––––––––––––––––––––––––
Analyzed: Jeff Berlin / Low Standards
––––––––––––––––––––––––––––––––––––––––

DR Peak RMS Duration Track
––––––––––––––––––––––––––––––––––––––––
DR5 -0.20 dB -6.79 dB 4:52 01-E.S.P.
DR7 -0.19 dB -8.18 dB 5:10 02-El Gaucho
DR8 -0.20 dB -9.91 dB 5:32 03-Falling Grace
DR9 -0.20 dB -10.81 dB 6:14 04-Fee Fi Fo Fum
DR7 -0.20 dB -8.81 dB 4:26 05-Vashkar
DR8 -0.20 dB -10.56 dB 6:25 06-Very Early
DR9 -0.20 dB -10.59 dB 6:00 07-Whisper Not
DR6 -0.20 dB -7.97 dB 6:03 08-James
––––––––––––––––––––––––––––––––––––––––

Number of tracks: 8
Official DR value: DR7

Samplerate: 44100 Hz
Channels: 2
Bits per sample: 16
Bitrate: 920 kbps
Codec: FLAC
================================================================================

Jeff Berlin - Low Standards (2013)
Jeff Berlin - Low Standards (2013)
Jeff Berlin - Low Standards (2013)


Rip by korvine666