Subcategories

Jeff Lorber Fusion - Step It Up (2015) {Heads Up}

Posted By: tiburon
Jeff Lorber Fusion - Step It Up (2015) {Heads Up}

Jeff Lorber Fusion - Step It Up (2015) {Heads Up}
EAC 1.1 | FLAC Image level 6 | Cue+Log | Full Scans 400dpi | 386MB + 5% Recovery
Genre: Fusion, Jazz-Funk
Jeff Lorber Fusion - Step It Up (2015) {Heads Up}

For Immediate Release – Jeff Lorber Fusion, whose previous release Hacienda was praised for its “impeccable musicianship and deep grooves” by JazzTimes and its “funky, rollicking jams” by All About Jazz, returns on September 25, 2015, with Step It Up on Heads Up, a division of Concord Music Group. The fourth consecutive collaboration between GRAMMY®-nominated keyboardist/composer/producer Jeff Lorber and GRAMMY®-winning bassist/composer/ producer Jimmy Haslip since the two virtuosos reactivated Jeff Lorber Fusion five years ago, Step It Up features 11 new Lorber compositions, several co-written with Haslip. The longtime colleagues also co-produced the recording.
Track List
01. Get Up 4:17
02. Up On This 5:37
03. Mustang 5:14
04. Fire Spirit 5:42
05. Arecibo 4:22
06. Right On Time [0:04:48
07. Starfish 5:02
08. Tenth Victim 4:49
09. Deep Green 6:29
10. Soul Party 5:50
11. Step It Up 4:34

musicians
Jeff Lorber - keyboards, guitar, bass
Jimmy Haslip - electric bass
Paul Jackson, Jr. - guitar
Vinnie Colaiuta - drums
Bob Mintzer - tenor sax
Robben Ford - guitar
Ash Soan - drums
Gary Meek - tenor sax, soprano sax
Lenny Castro - congas, percussion
Gary Novak - drums
David Mann- horns
Michael Thompson - guitar
Larry Koonse - guitar

Produced by Jeff Lorber and Jimmy Haslip


Exact Audio Copy V1.1 from 23. June 2015

Отчёт EAC об извлечении, выполненном 5. ноября 2015, 17:44

Jeff Lorber / Step It Up

Дисковод: ATAPI iHAS122 C Adapter: 1 ID: 1

Режим чтения : Достоверность
Использование точного потока : Да
Отключение кэша аудио : Да
Использование указателей C2 : Нет

Коррекция смещения при чтении : 6
Способность читать области Lead-in и Lead-out : Нет
Заполнение пропущенных сэмплов тишиной : Да
Удаление блоков с тишиной в начале и конце : Нет
При вычислениях CRC использовались нулевые сэмплы : Да
Интерфейс : Встроенный Win32-интерфейс для Win NT/2000

Выходной формат : Пользовательский кодировщик
Выбранный битрейт : 768 kBit/s
Качество : Высокий
Добавление ID3-тега : Нет
Утилита сжатия : C:\Program Files\Exact Audio Copy\FLAC\FLAC.EXE
Дополнительные параметры : -6 -V -T "ARTIST=%artist%" -T "TITLE=%title%" -T "ALBUM=%albumtitle%" -T "DATE=%year%" -T "TRACKNUMBER=%tracknr%" -T "GENRE=%genre%" -T "COMMENT=%comment%" -T "BAND=%albuminterpret%" -T "ALBUMARTIST=%albuminterpret%" -T "COMPOSER=%composer%" %haslyrics%–tag-from-file=LYRICS="%lyricsfile%"%haslyrics% -T "DISCNUMBER=%cdnumber%" -T "TOTALDISCS=%totalcds%" -T "TOTALTRACKS=%numtracks%" %hascover%–picture="%coverfile%"%hascover% %source% -o %dest%


TOC извлечённого CD

Трек | Старт | Длительность | Начальный сектор | Конечный сектор
––––––––––––––––––––––––––––––––––-
1 | 0:00.00 | 4:19.15 | 0 | 19439
2 | 4:19.15 | 5:38.38 | 19440 | 44827
3 | 9:57.53 | 5:16.35 | 44828 | 68562
4 | 15:14.13 | 5:43.70 | 68563 | 94357
5 | 20:58.08 | 4:24.24 | 94358 | 114181
6 | 25:22.32 | 4:50.24 | 114182 | 135955
7 | 30:12.56 | 5:04.21 | 135956 | 158776
8 | 35:17.02 | 4:51.20 | 158777 | 180621
9 | 40:08.22 | 6:30.39 | 180622 | 209910
10 | 46:38.61 | 5:51.60 | 209911 | 236295
11 | 52:30.46 | 4:33.52 | 236296 | 256822


Характеристики диапазона извлечения и сообщения об ошибках

Выбранный диапазон

Имя файла D:\UPLOADS-3\Jeff Lorber - Step It Up - 2015 - 57'06''\Jeff Lorber - Step It Up.wav

Пиковый уровень 100.0 %
Скорость извлечения 8.6 X
Качество диапазона 100.0 %
CRC теста 6BDF191C
CRC копии 6BDF191C
Копирование… OK

Ошибок не произошло

Конец отчёта

–– CUETools DB Plugin V2.1.6

[CTDB TOCID: URffZZ1sjRcj1s.LVkPtZTacHfw-] found
Submit result: URffZZ1sjRcj1s.LVkPtZTacHfw- has been confirmed
Track | CTDB Status
1 | (4/4) Accurately ripped
2 | (4/4) Accurately ripped
3 | (4/4) Accurately ripped
4 | (4/4) Accurately ripped
5 | (4/4) Accurately ripped
6 | (4/4) Accurately ripped
7 | (4/4) Accurately ripped
8 | (4/4) Accurately ripped
9 | (4/4) Accurately ripped
10 | (4/4) Accurately ripped
11 | (4/4) Accurately ripped


==== Контрольная сумма отчёта A30E5D87A2B9FCF85ED168AC1734626D1AC26F9AEC20AAB4238AC8D6B13DB3E4 ====


––––––––––––––––––––––––––––––––––––––––
Analyzed: Jeff Lorber / Step It Up
––––––––––––––––––––––––––––––––––––––––

DR Peak RMS Duration Track
––––––––––––––––––––––––––––––––––––––––
DR8 -0.20 dB -9.53 dB 4:19 01-Get Up
DR8 -0.19 dB -9.68 dB 5:39 02-Up On This
DR8 -0.06 dB -9.31 dB 5:16 03-Mustang
DR7 -0.07 dB -8.53 dB 5:44 04-Fire Spirit
DR8 -0.19 dB -9.70 dB 4:24 05-Arecibo
DR9 -0.16 dB -10.26 dB 4:50 06-Right On Time
DR9 -0.18 dB -10.48 dB 5:04 07-Starfish
DR9 -0.20 dB -10.11 dB 4:51 08-Tenth Victim
DR9 0.00 dB -10.54 dB 6:31 09-Deep Green
DR9 -0.19 dB -10.66 dB 5:52 10-Soul Party
DR8 -0.04 dB -10.23 dB 4:34 11-Step It Up
––––––––––––––––––––––––––––––––––––––––

Number of tracks: 11
Official DR value: DR8

Samplerate: 44100 Hz
Channels: 2
Bits per sample: 16
Bitrate: 866 kbps
Codec: FLAC
================================================================================

Jeff Lorber Fusion - Step It Up (2015) {Heads Up}
Jeff Lorber Fusion - Step It Up (2015) {Heads Up}
Jeff Lorber Fusion - Step It Up (2015) {Heads Up}


Rip by RedHotBlues