Subcategories

Jeff Lorber - Soft Space (1978) {WOU}

Posted By: tiburon
Jeff Lorber - Soft Space (1978) {WOU}

Jeff Lorber - Soft Space (1978) {WOU}
EAC 1.3 | FLAC tracks level 8 | Cue+Log+M3U | Full Scans 400dpi | 277MB + 5% Recovery
MP3 CBR 320 Kbps | 106MB + 5% Recovery
Genre: Fusion, Jazz-Funk
Jeff Lorber - Soft Space (1978) {WOU}

Soft Space is the second album by Keyboardist Jeff Lorber as leader of his band The Jeff Lorber Fusion. Released in 1978, this album featured special guest artists, Chick Corea and Joe Farrell. This was the group's last effort for Inner City Records before moving on to Arista Records the following year.
Track List
01. The Samba
02. Katherine
03. Black Ice
04. Curtains
05. Proteus
06. Soft Space
07. Swing Funk

musicians
Jeff Lorber – Fender Rhodes, Keyboards, Moog Synthesizer, Synthesizer, Voices
Chick Corea – Keyboards, Mini Moog, Soloist
Joe Farrell – Flute, Sax (Soprano), Saxophone
Lester McFarland – Bass, Electric Bass
Dennis Bradford – Drums
Dean Reichert – Electric Guitar, Acoustic Guitar
Terry Layne – Flute, Alto & Tenor Saxophone, WoodWind
Ron Young, Bruce Smith – Percussion, Congas

Producer by Jeff Lorber and Marlon McClain


Exact Audio Copy V1.3 from 2. September 2016

EAC extraction logfile from 20. May 2017, 9:38

The Jeff Lorber Fusion / Soft Space

Used drive : ATAPI eHBU212 2 Adapter: 1 ID: 1

Read mode : Secure
Utilize accurate stream : Yes
Defeat audio cache : Yes
Make use of C2 pointers : No

Read offset correction : 6
Overread into Lead-In and Lead-Out : No
Fill up missing offset samples with silence : Yes
Delete leading and trailing silent blocks : No
Null samples used in CRC calculations : Yes
Used interface : Native Win32 interface for Win NT & 2000
Gap handling : Appended to previous track

Used output format : User Defined Encoder
Selected bitrate : 128 kBit/s
Quality : High
Add ID3 tag : No
Command line compressor : C:\Program Files (x86)\Exact Audio Copy\Flac\flac.exe
Additional command line options : -8 -V -T "ARTIST=%artist%" -T "TITLE=%title%" -T "ALBUM=%albumtitle%" -T "DATE=%year%" -T "TRACKNUMBER=%tracknr%" -T "TOTALTRACKS=%numtracks%" -T "GENRE=%genre%" -T "ALBUMARTIST=%albumartist%" -T "ALBUM ARTIST=%albumartist%" -T "COMMENT=EAC Secure Mode, Test & Copy, AccurateRip, FLAC -8" %source%


TOC of the extracted CD

Track | Start | Length | Start sector | End sector
––––––––––––––––––––––––––––-
1 | 0:00.00 | 5:15.13 | 0 | 23637
2 | 5:15.13 | 5:51.34 | 23638 | 49996
3 | 11:06.47 | 5:39.62 | 49997 | 75483
4 | 16:46.34 | 5:58.74 | 75484 | 102407
5 | 22:45.33 | 4:43.56 | 102408 | 123688
6 | 27:29.14 | 4:06.73 | 123689 | 142211
7 | 31:36.12 | 5:56.50 | 142212 | 168961


Track 1

Filename G:\Music Place\FLAC & WAV\THE JEFF LORBER FUSION\The Jeff Lorber Fusion - Soft Space (1978) [FLAC] (WBR 2008)\01 - The Samba.wav

Pre-gap length 0:00:02.00

Peak level 97.2 %
Extraction speed 4.3 X
Track quality 100.0 %
Test CRC C01F11D4
Copy CRC C01F11D4
Accurately ripped (confidence 6) [37642817] (AR v2)
Copy OK

Track 2

Filename G:\Music Place\FLAC & WAV\THE JEFF LORBER FUSION\The Jeff Lorber Fusion - Soft Space (1978) [FLAC] (WBR 2008)\02 - Katherine.wav

Peak level 97.2 %
Extraction speed 4.1 X
Track quality 100.0 %
Test CRC 35184DDF
Copy CRC 35184DDF
Accurately ripped (confidence 6) [3FE1DE50] (AR v2)
Copy OK

Track 3

Filename G:\Music Place\FLAC & WAV\THE JEFF LORBER FUSION\The Jeff Lorber Fusion - Soft Space (1978) [FLAC] (WBR 2008)\03 - Black Ice.wav

Peak level 97.2 %
Extraction speed 5.5 X
Track quality 100.0 %
Test CRC D196CDBE
Copy CRC D196CDBE
Accurately ripped (confidence 6) [1A9185CF] (AR v2)
Copy OK

Track 4

Filename G:\Music Place\FLAC & WAV\THE JEFF LORBER FUSION\The Jeff Lorber Fusion - Soft Space (1978) [FLAC] (WBR 2008)\04 - Curtains.wav

Peak level 97.2 %
Extraction speed 6.1 X
Track quality 100.0 %
Test CRC 4C11F09E
Copy CRC 4C11F09E
Accurately ripped (confidence 6) [E63C6A2B] (AR v2)
Copy OK

Track 5

Filename G:\Music Place\FLAC & WAV\THE JEFF LORBER FUSION\The Jeff Lorber Fusion - Soft Space (1978) [FLAC] (WBR 2008)\05 - Proteus.wav

Peak level 97.2 %
Extraction speed 6.4 X
Track quality 100.0 %
Test CRC BF0E33FB
Copy CRC BF0E33FB
Accurately ripped (confidence 6) [4A22B970] (AR v2)
Copy OK

Track 6

Filename G:\Music Place\FLAC & WAV\THE JEFF LORBER FUSION\The Jeff Lorber Fusion - Soft Space (1978) [FLAC] (WBR 2008)\06 - Soft Space.wav

Peak level 97.2 %
Extraction speed 5.4 X
Track quality 99.9 %
Test CRC BF1283C7
Copy CRC BF1283C7
Accurately ripped (confidence 6) [C8B62649] (AR v2)
Copy OK

Track 7

Filename G:\Music Place\FLAC & WAV\THE JEFF LORBER FUSION\The Jeff Lorber Fusion - Soft Space (1978) [FLAC] (WBR 2008)\07 - Swing Funk.wav

Peak level 97.2 %
Extraction speed 7.1 X
Track quality 100.0 %
Test CRC C589E1D1
Copy CRC C589E1D1
Accurately ripped (confidence 6) [DE955C23] (AR v2)
Copy OK


All tracks accurately ripped

No errors occurred

End of status report

–– CUETools DB Plugin V2.1.6

[CTDB TOCID: cMzx4ji.CRqfUQndjZcfENlamrQ-] found
Submit result: cMzx4ji.CRqfUQndjZcfENlamrQ- has been confirmed
Track | CTDB Status
1 | (7/7) Accurately ripped
2 | (7/7) Accurately ripped
3 | (7/7) Accurately ripped
4 | (7/7) Accurately ripped
5 | (7/7) Accurately ripped
6 | (7/7) Accurately ripped
7 | (7/7) Accurately ripped


==== Log checksum 0E64C55E4D1715B7D493D70C58F3B41CDA7B3A2F74F0BF5BA4A221B382F2D6A1 ====

Jeff Lorber - Soft Space (1978) {WOU}
Jeff Lorber - Soft Space (1978) {WOU}


Thanks to the original ripper