Subcategories

Jeff Lorber - Wizard Island (1980) {Arista}

Posted By: tiburon
Jeff Lorber - Wizard Island (1980) {Arista}

Jeff Lorber - Wizard Island (1980) {Arista}
EAC 1.3 | FLAC tracks level 8 | Cue+Log+M3U | Full Scans 400dpi | 263MB + 5% Recovery
MP3 CBR 320 Kbps | 112MB + 5% Recovery
Genre: Fusion, Jazz-Funk
Jeff Lorber - Wizard Island (1980) {Arista}

Released in 1980, Wizard Island is the fourth album by keyboardist Jeff Lorber as leader of his band "The Jeff Lorber Fusion". The album was Lorber's first to reach number one on the US Jazz Album chart.
Track List
01. Wizard Island
02. Sweet
03. Can’t Get Enough
04. Reflections
05. Fusion Juice
06. Lava Lands
07. Shadows
08. City
09. Rooftops

musicians
Jeff Lorber - Electric Piano, Acoustic Piano, Keyboards, Synthesizer
Danny Wilson - Bass
Dennis Bradford - Drums
Jay Koder - Jazz & Acoustic Guitar
Kenny Gorelick aka Kenny G - Flute, Soprano Saxophone, Tenor Saxophone
Paulinho Da Costa - Percussion
Chick Corea - Keyboards on "Rooftops"

Produced by Jeff Lorber


Exact Audio Copy V1.3 from 2. September 2016

EAC extraction logfile from 20. May 2017, 11:27

The Jeff Lorber Fusion / Wizard Island

Used drive : ATAPI eHBU212 2 Adapter: 1 ID: 1

Read mode : Secure
Utilize accurate stream : Yes
Defeat audio cache : Yes
Make use of C2 pointers : No

Read offset correction : 6
Overread into Lead-In and Lead-Out : No
Fill up missing offset samples with silence : Yes
Delete leading and trailing silent blocks : No
Null samples used in CRC calculations : Yes
Used interface : Native Win32 interface for Win NT & 2000
Gap handling : Appended to previous track

Used output format : User Defined Encoder
Selected bitrate : 128 kBit/s
Quality : High
Add ID3 tag : No
Command line compressor : C:\Program Files (x86)\Exact Audio Copy\Flac\flac.exe
Additional command line options : -8 -V -T "ARTIST=%artist%" -T "TITLE=%title%" -T "ALBUM=%albumtitle%" -T "DATE=%year%" -T "TRACKNUMBER=%tracknr%" -T "TOTALTRACKS=%numtracks%" -T "GENRE=%genre%" -T "ALBUMARTIST=%albumartist%" -T "ALBUM ARTIST=%albumartist%" -T "COMMENT=EAC Secure Mode, Test & Copy, AccurateRip, FLAC -8" %source%


TOC of the extracted CD

Track | Start | Length | Start sector | End sector
––––––––––––––––––––––––––––-
1 | 0:00.00 | 4:05.12 | 0 | 18386
2 | 4:05.12 | 3:54.35 | 18387 | 35971
3 | 7:59.47 | 3:40.33 | 35972 | 52504
4 | 11:40.05 | 5:17.07 | 52505 | 76286
5 | 16:57.12 | 4:11.30 | 76287 | 95141
6 | 21:08.42 | 3:59.60 | 95142 | 113126
7 | 25:08.27 | 3:57.55 | 113127 | 130956
8 | 29:06.07 | 3:59.15 | 130957 | 148896
9 | 33:05.22 | 3:52.28 | 148897 | 166324


Track 1

Filename G:\Music Place\FLAC & WAV\THE JEFF LORBER FUSION\The Jeff Lorber Fusion - Wizard Island (1980) [FLAC] (ARISTA Unknown)\01 - Wizard Island.wav

Pre-gap length 0:00:02.00

Peak level 100.0 %
Extraction speed 4.6 X
Track quality 100.0 %
Test CRC 8A4DEB13
Copy CRC 8A4DEB13
Accurately ripped (confidence 6) [F98DCA60] (AR v2)
Copy OK

Track 2

Filename G:\Music Place\FLAC & WAV\THE JEFF LORBER FUSION\The Jeff Lorber Fusion - Wizard Island (1980) [FLAC] (ARISTA Unknown)\02 - Sweet.wav

Peak level 100.0 %
Extraction speed 5.0 X
Track quality 100.0 %
Test CRC 60725B92
Copy CRC 60725B92
Accurately ripped (confidence 6) [EC7A3D2A] (AR v2)
Copy OK

Track 3

Filename G:\Music Place\FLAC & WAV\THE JEFF LORBER FUSION\The Jeff Lorber Fusion - Wizard Island (1980) [FLAC] (ARISTA Unknown)\03 - Can't Get Enough.wav

Peak level 100.0 %
Extraction speed 4.4 X
Track quality 99.9 %
Test CRC B3A5EB5B
Copy CRC B3A5EB5B
Accurately ripped (confidence 6) [9E962221] (AR v2)
Copy OK

Track 4

Filename G:\Music Place\FLAC & WAV\THE JEFF LORBER FUSION\The Jeff Lorber Fusion - Wizard Island (1980) [FLAC] (ARISTA Unknown)\04 - Reflections.wav

Peak level 100.0 %
Extraction speed 6.1 X
Track quality 100.0 %
Test CRC 21A474B9
Copy CRC 21A474B9
Accurately ripped (confidence 6) [AD73943E] (AR v2)
Copy OK

Track 5

Filename G:\Music Place\FLAC & WAV\THE JEFF LORBER FUSION\The Jeff Lorber Fusion - Wizard Island (1980) [FLAC] (ARISTA Unknown)\05 - Fusion Juice.wav

Pre-gap length 0:00:01.13

Peak level 100.0 %
Extraction speed 6.4 X
Track quality 100.0 %
Test CRC 35BDEFE4
Copy CRC 35BDEFE4
Accurately ripped (confidence 6) [2CE2BA32] (AR v2)
Copy OK

Track 6

Filename G:\Music Place\FLAC & WAV\THE JEFF LORBER FUSION\The Jeff Lorber Fusion - Wizard Island (1980) [FLAC] (ARISTA Unknown)\06 - Lava Lands.wav

Peak level 100.0 %
Extraction speed 6.5 X
Track quality 100.0 %
Test CRC B74C6B81
Copy CRC B74C6B81
Accurately ripped (confidence 6) [34BD878A] (AR v2)
Copy OK

Track 7

Filename G:\Music Place\FLAC & WAV\THE JEFF LORBER FUSION\The Jeff Lorber Fusion - Wizard Island (1980) [FLAC] (ARISTA Unknown)\07 - Shadows.wav

Peak level 100.0 %
Extraction speed 5.8 X
Track quality 99.9 %
Test CRC ACB03584
Copy CRC ACB03584
Accurately ripped (confidence 6) [756B13EF] (AR v2)
Copy OK

Track 8

Filename G:\Music Place\FLAC & WAV\THE JEFF LORBER FUSION\The Jeff Lorber Fusion - Wizard Island (1980) [FLAC] (ARISTA Unknown)\08 - City.wav

Peak level 100.0 %
Extraction speed 7.1 X
Track quality 100.0 %
Test CRC 0FCB3711
Copy CRC 0FCB3711
Accurately ripped (confidence 6) [61868F62] (AR v2)
Copy OK

Track 9

Filename G:\Music Place\FLAC & WAV\THE JEFF LORBER FUSION\The Jeff Lorber Fusion - Wizard Island (1980) [FLAC] (ARISTA Unknown)\09 - Rooftops.wav

Peak level 100.0 %
Extraction speed 7.3 X
Track quality 100.0 %
Test CRC DA406B44
Copy CRC DA406B44
Accurately ripped (confidence 6) [83465B2A] (AR v2)
Copy OK


All tracks accurately ripped

No errors occurred

End of status report

–– CUETools DB Plugin V2.1.6

[CTDB TOCID: MLJpnf0yBnkWyDyilzYpRt944zM-] found
Submit result: MLJpnf0yBnkWyDyilzYpRt944zM- has been confirmed
Track | CTDB Status
1 | (12/12) Accurately ripped
2 | (12/12) Accurately ripped
3 | (12/12) Accurately ripped
4 | (12/12) Accurately ripped
5 | (12/12) Accurately ripped
6 | (12/12) Accurately ripped
7 | (12/12) Accurately ripped
8 | (12/12) Accurately ripped
9 | (12/12) Accurately ripped


==== Log checksum A38C3266A7D52755DF343A299B55AC7AB6B3B4C7475D6534C59D24B428A356F4 ====


––––––––––––––––––––––––––––––––––––––––
Analyzed: The Jeff Lorber Fusion / Wizard Island
––––––––––––––––––––––––––––––––––––––––

DR Peak RMS Duration Track
––––––––––––––––––––––––––––––––––––––––
DR15 0.00 dB -16.32 dB 4:05 01-Wizard Island
DR14 0.00 dB -15.98 dB 3:54 02-Sweet
DR14 0.00 dB -15.81 dB 3:40 03-Can't Get Enough
DR15 0.00 dB -17.63 dB 5:17 04-Reflections
DR14 0.00 dB -15.93 dB 4:11 05-Fusion Juice
DR15 0.00 dB -16.29 dB 4:00 06-Lava Lands
DR15 0.00 dB -16.67 dB 3:58 07-Shadows
DR14 0.00 dB -15.61 dB 3:59 08-City
DR13 0.00 dB -14.66 dB 3:52 09-Rooftops
––––––––––––––––––––––––––––––––––––––––

Number of tracks: 9
Official DR value: DR14

Samplerate: 44100 Hz
Channels: 2
Bits per sample: 16
Bitrate: 905 kbps
Codec: FLAC
================================================================================

Jeff Lorber - Wizard Island (1980) {Arista}
Jeff Lorber - Wizard Island (1980) {Arista}
Jeff Lorber - Wizard Island (1980) {Arista}


Thanks to the original ripper