Subcategories

Jeff Lorber - Worth Waiting For (1993) {Verve}

Posted By: tiburon
Jeff Lorber - Worth Waiting For (1993) {Verve}

Jeff Lorber - Worth Waiting For (1993) {Verve}
EAC 1.0b1 | FLAC tracks level 8 | Cue+Log+M3u | Full Scans 300dpi | 369MB + 3% Recovery
MP3 CBR 320 Kbps | 136MB + 5% Recovery
Genre: Fusion, Jazz-Funk, Smooth Jazz

After a seven year layoff, feisty veteran funkmaster Lorber steps out from the producer's chair with a fun filled all star project. The keyboardist, best known for his fusion years, has been far from idle during that time, producing for pop jazz sax gods Kenny G and Eric Marienthal, and mixing for U2 and Paula Abdul. His latest lives up to its title…though not resoundingly so. As he did with Marienthal's brilliant Oasis, Lorber divides his keyboard time between punchy, soulful rhythms and mellifluous textures that pour on the romance. Easygoing exercises like "Yellowstone" and the Latin tinged "Punta Del Soul" inspire a cool charm, but it's danceable cookers like "High Wire" and "Jazzery" that keep the disc spiraling. The only track that seems out of step is "Do What It Takes," whose production takes on a dated, 70s Crusaders sheen. Spirited performances surround Lorber's tasty keywork, most notably those of Art Porter, Gary Meek, Dave Koz and Bruce Hornsby.
Track List
01. Rain Song (5:21)
02. The Underground (4:44)
03. Yellowstone (4:29)
04. Punta del Este (5:03)
05. Lost With You (5:18)
06. Worth Waiting For (5:28)
07. High Wire (5:56)
08. Wavelength (6:00)
09. Columbus Ave. (5:22)
10. Do What It Takes (5:17)
11. Jazzery (4:22)

musicians
Alto Saxophone – Art Porter (tracks: 1), Dave Koz (tracks: 7), Gary Meek (tracks: 11)
Arranged By, Keyboards, Percussion [Synth] – Jeff Lorber (tracks: All)
Drum Programming, Hihat – Curt Bisquera (tracks: 10)
Drums – John Robinson (2) (tracks: 1, 3, 6, 7, 9, 11)
Electric Bass – Alec Milstein (tracks: 1-4, 6-11)
Flute – Gary Meek (tracks: 3)
Guitar – Buzz Feiten* (tracks: 8), Oliver Leiber (tracks: 7), Paul Jackson Jr. (tracks: 1-4, 6-10)
Guitar [Nylon] – Lee Ritenour (tracks: 10)
Percussion – Paulinho Da Costa (tracks: 1-6, 8-10)
Piano [Additional] – Bruce Hornsby (tracks: 3)
Soprano Saxophone – Art Porter (tracks: 9), Dave Koz (tracks: 6), Gary Meek (tracks: 2, 3, 8)
Vocals – Alec Milstein (tracks: 4), Eric Jordan* (tracks: 5), Janis Siegel (tracks: 4)

Produced by Jeff Lorber


Exact Audio Copy V1.0 beta 1 from 15. November 2010

EAC extraction logfile from 21. July 2012, 14:29

Jeff Lorber / Worth Waiting For

Used drive : Optiarc DVD RW AD-7200A Adapter: 0 ID: 0

Read mode : Secure
Utilize accurate stream : Yes
Defeat audio cache : Yes
Make use of C2 pointers : No

Read offset correction : 48
Overread into Lead-In and Lead-Out : No
Fill up missing offset samples with silence : Yes
Delete leading and trailing silent blocks : No
Null samples used in CRC calculations : Yes
Used interface : Native Win32 interface for Win NT & 2000
Gap handling : Appended to previous track

Used output format : User Defined Encoder
Selected bitrate : 768 kBit/s
Quality : High
Add ID3 tag : No
Command line compressor : C:\Program Files\Exact Audio Copy\Flac\flac.exe
Additional command line options : -8 -V -T "ARTIST=%a" -T "TITLE=%t" -T "ALBUM=%g" -T "DATE=%y" -T "TRACKNUMBER=%n" -T "TOTALTRACKS=%x" -T "GENRE=%m" -T "ALBUMARTIST=%v" -T "ALBUM ARTIST=%v" -T "COMMENT=EAC Secure Mode, Test & Copy, AccurateRip, FLAC -8" %s


TOC of the extracted CD

Track | Start | Length | Start sector | End sector
––––––––––––––––––––––––––––-
1 | 0:00.32 | 5:22.63 | 32 | 24244
2 | 5:23.20 | 4:45.25 | 24245 | 45644
3 | 10:08.45 | 4:29.00 | 45645 | 65819
4 | 14:37.45 | 5:04.00 | 65820 | 88619
5 | 19:41.45 | 5:20.25 | 88620 | 112644
6 | 25:01.70 | 5:29.00 | 112645 | 137319
7 | 30:30.70 | 5:57.50 | 137320 | 164144
8 | 36:28.45 | 5:59.50 | 164145 | 191119
9 | 42:28.20 | 5:24.00 | 191120 | 215419
10 | 47:52.20 | 5:16.50 | 215420 | 239169
11 | 53:08.70 | 4:23.50 | 239170 | 258944


Track 1

Filename E:\Jeff Lorber - Worth Waiting For (1993) [FLAC] {Verve Forecast, 517 998-2, Germany, 1993}\01 - Rain Song.wav

Pre-gap length 0:00:02.42

Peak level 97.1 %
Extraction speed 2.4 X
Track quality 100.0 %
Test CRC 51012022
Copy CRC 51012022
Accurately ripped (confidence 6) [7F22887D]
Copy OK

Track 2

Filename E:\Jeff Lorber - Worth Waiting For (1993) [FLAC] {Verve Forecast, 517 998-2, Germany, 1993}\02 - The Underground.wav

Pre-gap length 0:00:02.33

Peak level 97.7 %
Extraction speed 2.7 X
Track quality 100.0 %
Test CRC 516E4A0F
Copy CRC 516E4A0F
Accurately ripped (confidence 6) [C0FB9BC2]
Copy OK

Track 3

Filename E:\Jeff Lorber - Worth Waiting For (1993) [FLAC] {Verve Forecast, 517 998-2, Germany, 1993}\03 - Yellowstone.wav

Peak level 93.3 %
Extraction speed 2.9 X
Track quality 100.0 %
Test CRC F91043C5
Copy CRC F91043C5
Accurately ripped (confidence 6) [F7F1CC17]
Copy OK

Track 4

Filename E:\Jeff Lorber - Worth Waiting For (1993) [FLAC] {Verve Forecast, 517 998-2, Germany, 1993}\04 - Punta Del Este.wav

Peak level 92.4 %
Extraction speed 3.3 X
Track quality 100.0 %
Test CRC 4BB48E9D
Copy CRC 4BB48E9D
Accurately ripped (confidence 6) [82583C81]
Copy OK

Track 5

Filename E:\Jeff Lorber - Worth Waiting For (1993) [FLAC] {Verve Forecast, 517 998-2, Germany, 1993}\05 - Lost With You.wav

Peak level 93.3 %
Extraction speed 3.5 X
Track quality 100.0 %
Test CRC 7D888E45
Copy CRC 7D888E45
Accurately ripped (confidence 6) [555C0057]
Copy OK

Track 6

Filename E:\Jeff Lorber - Worth Waiting For (1993) [FLAC] {Verve Forecast, 517 998-2, Germany, 1993}\06 - Worth Waiting For.wav

Pre-gap length 0:00:01.66

Peak level 93.3 %
Extraction speed 2.7 X
Track quality 99.9 %
Test CRC 29D81C42
Copy CRC 29D81C42
Cannot be verified as accurate (confidence 6) [8A0C7D46], AccurateRip returned [0EB70BC7]
Copy OK

Track 7

Filename E:\Jeff Lorber - Worth Waiting For (1993) [FLAC] {Verve Forecast, 517 998-2, Germany, 1993}\07 - High Wire.wav

Pre-gap length 0:00:00.66

Peak level 93.3 %
Extraction speed 4.1 X
Track quality 100.0 %
Test CRC 19F85CFF
Copy CRC 19F85CFF
Accurately ripped (confidence 6) [9FFDE9A9]
Copy OK

Track 8

Filename E:\Jeff Lorber - Worth Waiting For (1993) [FLAC] {Verve Forecast, 517 998-2, Germany, 1993}\08 - Wavelength.wav

Pre-gap length 0:00:01.00

Peak level 90.2 %
Extraction speed 4.3 X
Track quality 100.0 %
Test CRC E986C090
Copy CRC E986C090
Accurately ripped (confidence 6) [72495AA7]
Copy OK

Track 9

Filename E:\Jeff Lorber - Worth Waiting For (1993) [FLAC] {Verve Forecast, 517 998-2, Germany, 1993}\09 - Columbus Ave..wav

Peak level 93.3 %
Extraction speed 4.4 X
Track quality 100.0 %
Test CRC 4C50BEF2
Copy CRC 4C50BEF2
Accurately ripped (confidence 6) [7E28245F]
Copy OK

Track 10

Filename E:\Jeff Lorber - Worth Waiting For (1993) [FLAC] {Verve Forecast, 517 998-2, Germany, 1993}\10 - Do What It Takes.wav

Pre-gap length 0:00:01.00

Peak level 93.3 %
Extraction speed 4.6 X
Track quality 100.0 %
Test CRC 110308F1
Copy CRC 110308F1
Accurately ripped (confidence 6) [227EDCB3]
Copy OK

Track 11

Filename E:\Jeff Lorber - Worth Waiting For (1993) [FLAC] {Verve Forecast, 517 998-2, Germany, 1993}\11 - Jazzery.wav

Peak level 93.3 %
Extraction speed 4.2 X
Track quality 99.9 %
Test CRC 2D65CEFB
Copy CRC 2D65CEFB
Accurately ripped (confidence 6) [6E94B6C2]
Copy OK


10 track(s) accurately ripped
1 track(s) could not be verified as accurate

Some tracks could not be verified as accurate

No errors occurred

End of status report

==== Log checksum BDA8C262D91A376792F98C157CD8F329EC627D9A69E2FB0DEE9488955337B134 ====

Jeff Lorber - Worth Waiting For (1993) {Verve}
Jeff Lorber - Worth Waiting For (1993) {Verve}


Thanks to the original ripper