Subcategories

Jeff Richman / Jimmy Haslip / Danny Gottlieb - Trio Loco (2001)

Posted By: tiburon
Jeff Richman / Jimmy Haslip / Danny Gottlieb - Trio Loco (2001)

Jeff Richman / Jimmy Haslip / Danny Gottlieb - Trio Loco (2001)
EAC 0.99pb4 | FLAC Image level 8 | Cue+Log | Full Scans 300dpi | 293MB + 5% Recovery
MP3 CBR 320 Kbps | 122MB + 5% Recovery
Genre: Fusion

Guitarist Jeff Richman, bassist Jimmy Haslip (taking a break from the Yellowjackets to play some fusion!) and drummer, Danny Gottlieb recorded live at the Baked Potato, in Hollywood CA, on Oct. 6 & 7 2000. Entirely instrumental, tasty, well played fusion from these three jazz/fusion veterans.
Track List
01. Three Planets 5:11
02. Abeology 4:25
03. Little Star 4:47
04. Country Living 8:48
05. Daji 1:15
06. Red Planet 4:11
07. Monkfish 3:25
08. Kamaroon 6:10
09. For Kieth 6:15
10. Simplexity 6:10

musicians
Jeff Richman - guitar
Jimmy Haslip - bass
Danny Gottlieb - drums

Produced by Philip Giffin


Exact Audio Copy V0.99 prebeta 4 from 23. January 2008

Отчёт EAC об извлечении, выполненном 30. мая 2010, 22:51

Richman, Haslip, Gottlieb / Trio Loco

Дисковод: ASUS DRW-20B1LT Adapter: 4 ID: 0

Режим чтения : Достоверность
Использование точного потока : Да
Отключение кэша аудио : Да
Использование указателей C2 : Нет

Коррекция смещения при чтении : 6
Способность читать области Lead-in и Lead-out : Нет
Заполнение пропущенных сэмплов тишиной : Да
Удаление блоков с тишиной в начале и конце : Нет
При вычислениях CRC использовались нулевые сэмплы : Да
Интерфейс : Встроенный Win32-интерфейс для Win NT/2000

Выходной формат : Пользовательский кодировщик
Выбранный битрейт : 768 kBit/s
Качество : Высокий
Добавление ID3-тэга : Нет
Утилита сжатия : D:\Program Files\Exact Audio Copy\Flac\Flac.exe
Дополнительные параметры : -8 –delete-input-file -o "D:\CDImage.flac" -V %s


TOC извлечённого CD

Трек | Старт | Длительность | Начальный сектор | Конечный сектор
––––––––––––––––––––––––––––––––––-
1 | 0:00.00 | 5:18.60 | 0 | 23909
2 | 5:18.60 | 4:23.73 | 23910 | 43707
3 | 9:42.58 | 4:49.22 | 43708 | 65404
4 | 14:32.05 | 8:51.03 | 65405 | 105232
5 | 23:23.08 | 1:20.09 | 105233 | 111241
6 | 24:43.17 | 4:13.11 | 111242 | 130227
7 | 28:56.28 | 3:28.72 | 130228 | 145899
8 | 32:25.25 | 6:13.01 | 145900 | 173875
9 | 38:38.26 | 6:17.53 | 173876 | 202203
10 | 44:56.04 | 6:11.31 | 202204 | 230059


Характеристики диапазона извлечения и сообщения об ошибках

Выбранный диапазон

Имя файла D:\Richman, Haslip, Gottlieb - Trio Loco.wav

Пиковый уровень 100.0 %
Качество диапазона 100.0 %
CRC теста 5F1F96AE
CRC копии 5F1F96AE
Копирование… OK

Ошибок не произошло


AccurateRip: сводка

Трек 1 точность не определена (достоверность 1) [DCC0AFB1], AccurateRip вернул [B7C6E45B]
Трек 2 точность не определена (достоверность 1) [A50AFDCF], AccurateRip вернул [4896C67A]
Трек 3 точность не определена (достоверность 1) [871222DC], AccurateRip вернул [492ECA31]
Трек 4 точность не определена (достоверность 1) [D1F20330], AccurateRip вернул [A4544396]
Трек 5 точность не определена (достоверность 1) [A15DE7D4], AccurateRip вернул [F958B1DA]
Трек 6 точность не определена (достоверность 1) [E9DFDD1F], AccurateRip вернул [F30B4E29]
Трек 7 точность не определена (достоверность 1) [082D1775], AccurateRip вернул [38D45D15]
Трек 8 точность не определена (достоверность 1) [1BE4398E], AccurateRip вернул [8C1757DA]
Трек 9 точность не определена (достоверность 1) [983F68BA], AccurateRip вернул [D54A47C6]
Трек 10 точность не определена (достоверность 1) [D53D3F55], AccurateRip вернул [BF5B9E2A]

Ни один трек не прошёл проверки на точность
В вашей базе может быть иной вариант штамповки диска

Конец отчёта


––––––––––––––––––––––––––––––––––––––––
Analyzed: Richman, Haslip, Gottlieb / Trio Loco
––––––––––––––––––––––––––––––––––––––––

DR Peak RMS Duration Track
––––––––––––––––––––––––––––––––––––––––
DR9 0.00 dB -12.12 dB 5:19 01-three planets
DR12 0.00 dB -16.01 dB 4:24 02-abeology
DR15 -0.82 dB -20.15 dB 4:49 03-little star
DR13 0.00 dB -16.24 dB 8:51 04-country living
DR12 0.00 dB -13.68 dB 1:20 05-daji
DR16 0.00 dB -20.60 dB 4:13 06-red planet
DR13 0.00 dB -16.29 dB 3:29 07-monkfish
DR12 0.00 dB -14.78 dB 6:13 08-kamaroon
DR15 0.00 dB -18.59 dB 6:18 09-for keith
DR16 0.00 dB -20.35 dB 6:11 10-simplexity
––––––––––––––––––––––––––––––––––––––––

Number of tracks: 10
Official DR value: DR13

Samplerate: 44100 Hz
Channels: 2
Bits per sample: 16
Bitrate: 788 kbps
Codec: FLAC
================================================================================

Jeff Richman / Jimmy Haslip / Danny Gottlieb - Trio Loco (2001)
Jeff Richman / Jimmy Haslip / Danny Gottlieb - Trio Loco (2001)
Jeff Richman / Jimmy Haslip / Danny Gottlieb - Trio Loco (2001)


Rip by orbster


The Files Are Interchangeable