Subcategories

Jeff Richman - Like That (2010) {Nefer}

Posted By: tiburon
Jeff Richman - Like That (2010) {Nefer}

Jeff Richman - Like That (2010) {Nefer}
EAC 1.0b1 | FLAC tracks level 8 | Cue+Log+M3U+MD5 | Full Scans 600dpi | 411MB + 5% Recovery
MP3 CBR 320 Kbps | 132MB + 5% Recovery
Genre: Fusion

Jeff Richman's 15th solo release and delivers ten hard-hitting, playful compositions with catchy melodies and a refreshingly modern sound. Richman continues to shine in his ability to write music with creative intricacy and sophistication, articulating his individual point of view. This time around, his guitar tone is deeper, more resonant, robust and alive. Richman's style of playing complex changes fluidly over these infectious grooves will satisfy over many listenings.
Track List
01. Like That 5:39
02. In Spirited 5:30
03. Small Kid Time 5:42
04. Awful Pretty 6:29
05. The Endless Inbetween 5:48
06. Rock Tall 5:26
07. Tsuyako 4:48
08. Touch And Go 5:10
09. In Flux 6:46
10. Truffaz 5:21

musicians
Jeff Richman - guitar
Vinnie Colaiuta - drums
Alex Acuna - percussion
Neil Stubenhaus - bass
Will Kennedy - drums
Mitchel Forman - keyboards
Dean Taba - bass
Deron Johnson - Fender Rhodes
Steve Hass - drums
Larry Goldings - organ

Produced by Jeff Richman


Exact Audio Copy V1.0 beta 1 from 15. November 2010

EAC extraction logfile from 8. January 2012, 11:46

Jeff Richman / Like That

Used drive : HL-DT-STDVDRAM GH20NS10 Adapter: 2 ID: 1

Read mode : Secure
Utilize accurate stream : Yes
Defeat audio cache : Yes
Make use of C2 pointers : No

Read offset correction : 667
Overread into Lead-In and Lead-Out : No
Fill up missing offset samples with silence : Yes
Delete leading and trailing silent blocks : No
Null samples used in CRC calculations : Yes
Used interface : Native Win32 interface for Win NT & 2000
Gap handling : Appended to previous track

Used output format : User Defined Encoder
Selected bitrate : 1024 kBit/s
Quality : High
Add ID3 tag : No
Command line compressor : C:\Program Files\Exact Audio Copy\Flac\flac.exe
Additional command line options : -8 -V -T "ARTIST=%a" -T "TITLE=%t" -T "ALBUM=%g" -T "DATE=%y" -T "TRACKNUMBER=%n" -T "TOTALTRACKS=%x" -T "GENRE=%m" -T "ALBUMARTIST=%v" -T "ALBUM ARTIST=%v" -T "COMMENT=EAC Secure Mode, Test & Copy, AccurateRip, FLAC -8" %s


TOC of the extracted CD

Track | Start | Length | Start sector | End sector
––––––––––––––––––––––––––––-
1 | 0:00.00 | 5:41.14 | 0 | 25588
2 | 5:41.14 | 5:31.38 | 25589 | 50451
3 | 11:12.52 | 5:41.27 | 50452 | 76053
4 | 16:54.04 | 6:30.07 | 76054 | 105310
5 | 23:24.11 | 5:49.24 | 105311 | 131509
6 | 29:13.35 | 5:27.59 | 131510 | 156093
7 | 34:41.19 | 4:47.39 | 156094 | 177657
8 | 39:28.58 | 5:11.69 | 177658 | 201051
9 | 44:40.52 | 6:47.74 | 201052 | 231650
10 | 51:28.51 | 5:21.05 | 231651 | 255730


Track 1

Filename G:\Jeff Richman - Like That (2010) {Nefer}\01 - Like That.wav

Pre-gap length 0:00:02.00

Peak level 98.8 %
Extraction speed 4.1 X
Track quality 100.0 %
Test CRC 5565FB6F
Copy CRC 5565FB6F
Cannot be verified as accurate (confidence 1) [B8D8147F], AccurateRip returned [5F76821D]
Copy OK

Track 2

Filename G:\Jeff Richman - Like That (2010) {Nefer}\02 - In Spirited.wav

Pre-gap length 0:00:02.00

Peak level 98.8 %
Extraction speed 4.7 X
Track quality 100.0 %
Test CRC 877F1B71
Copy CRC 877F1B71
Cannot be verified as accurate (confidence 1) [169ED0F1], AccurateRip returned [4DFF5C39]
Copy OK

Track 3

Filename G:\Jeff Richman - Like That (2010) {Nefer}\03 - Small Kid Time.wav

Pre-gap length 0:00:02.00

Peak level 98.8 %
Extraction speed 4.4 X
Track quality 99.9 %
Test CRC 4F2F0440
Copy CRC 4F2F0440
Cannot be verified as accurate (confidence 1) [6FAC2EC5], AccurateRip returned [65DD7CE3]
Copy OK

Track 4

Filename G:\Jeff Richman - Like That (2010) {Nefer}\04 - Awful Pretty.wav

Pre-gap length 0:00:00.32

Peak level 98.8 %
Extraction speed 5.7 X
Track quality 100.0 %
Test CRC 8839237E
Copy CRC 8839237E
Cannot be verified as accurate (confidence 1) [AAB5558E], AccurateRip returned [B5F8BC04]
Copy OK

Track 5

Filename G:\Jeff Richman - Like That (2010) {Nefer}\05 - The Endless Inbetween.wav

Pre-gap length 0:00:01.28

Peak level 98.8 %
Extraction speed 5.2 X
Track quality 99.9 %
Test CRC FC820E2F
Copy CRC FC820E2F
Cannot be verified as accurate (confidence 1) [A4E29111], AccurateRip returned [30137A5F]
Copy OK

Track 6

Filename G:\Jeff Richman - Like That (2010) {Nefer}\06 - Rock Tall.wav

Pre-gap length 0:00:00.74

Peak level 98.8 %
Extraction speed 6.5 X
Track quality 100.0 %
Test CRC 117E7336
Copy CRC 117E7336
Cannot be verified as accurate (confidence 1) [FB777896], AccurateRip returned [76C740D6]
Copy OK

Track 7

Filename G:\Jeff Richman - Like That (2010) {Nefer}\07 - Tsuyako.wav

Pre-gap length 0:00:01.74

Peak level 98.8 %
Extraction speed 6.6 X
Track quality 100.0 %
Test CRC DD100B7E
Copy CRC DD100B7E
Cannot be verified as accurate (confidence 1) [DE442256], AccurateRip returned [D5957E20]
Copy OK

Track 8

Filename G:\Jeff Richman - Like That (2010) {Nefer}\08 - Toutch And Go.wav

Pre-gap length 0:00:01.74

Peak level 98.8 %
Extraction speed 7.1 X
Track quality 100.0 %
Test CRC 74EBF940
Copy CRC 74EBF940
Cannot be verified as accurate (confidence 1) [BA88B5D2], AccurateRip returned [CBEF0BFE]
Copy OK

Track 9

Filename G:\Jeff Richman - Like That (2010) {Nefer}\09 - In Flux.wav

Pre-gap length 0:00:01.39

Peak level 98.8 %
Extraction speed 7.5 X
Track quality 100.0 %
Test CRC 36EDFCDD
Copy CRC 36EDFCDD
Cannot be verified as accurate (confidence 1) [62953802], AccurateRip returned [8C88BA28]
Copy OK

Track 10

Filename G:\Jeff Richman - Like That (2010) {Nefer}\10 - Truffaz.wav

Pre-gap length 0:00:01.74

Peak level 98.8 %
Extraction speed 7.8 X
Track quality 100.0 %
Test CRC 920632E1
Copy CRC 920632E1
Cannot be verified as accurate (confidence 1) [A5AFD816], AccurateRip returned [14D42558]
Copy OK


No tracks could be verified as accurate
You may have a different pressing from the one(s) in the database

No errors occurred

End of status report

==== Log checksum FC796302461265E57C0C6E4B1034C183DC66532F96A64AB5F80C438DF3DB1076 ====


––––––––––––––––––––––––––––––––––––––––
Analyzed: Jeff Richman / Like That
––––––––––––––––––––––––––––––––––––––––

DR Peak RMS Duration Track
––––––––––––––––––––––––––––––––––––––––
DR8 -0.10 dB -9.17 dB 5:41 01-Like That
DR8 -0.10 dB -9.93 dB 5:32 02-In Spirited
DR9 -0.10 dB -10.59 dB 5:41 03-Small Kid Time
DR8 -0.10 dB -9.96 dB 6:30 04-Awful Pretty
DR7 -0.10 dB -9.66 dB 5:49 05-The Endless Inbetween
DR7 -0.10 dB -8.22 dB 5:28 06-Rock Tall
DR8 -0.10 dB -10.35 dB 4:48 07-Tsuyako
DR7 -0.10 dB -8.44 dB 5:12 08-Toutch And Go
DR9 -0.10 dB -10.94 dB 6:48 09-In Flux
DR7 -0.10 dB -8.60 dB 5:21 10-Truffaz
––––––––––––––––––––––––––––––––––––––––

Number of tracks: 10
Official DR value: DR8

Samplerate: 44100 Hz
Channels: 2
Bits per sample: 16
Bitrate: 914 kbps
Codec: FLAC
================================================================================

Jeff Richman - Like That (2010) {Nefer}
Jeff Richman - Like That (2010) {Nefer}
Jeff Richman - Like That (2010) {Nefer}


Rip by tiburon


The Files Are Interchangeable