Subcategories

Jeff Richman - The Line Up (2011)

Posted By: tiburon
Jeff Richman - The Line Up (2011)

Jeff Richman & Chatterbox - The Line Up (2011)
EAC 1.0b1 | FLAC tracks level 8 | Cue+Log+M3U+MD5 | Full Scans 300dpi | 377MB + 5% Recovery
Genre: Fusion

Guitarist Jeff Richman has enjoyed success on the jazz scene for nearly 35 years. His guitar playing is cited as tasteful and articulate, with room to breathe. He is recognized by and associated with the other luminaries of the fusion and contemporary jazz. His guitar is heard the world over. On this new release, his tone rises above with something unique that can't quite be described. It is the impression of a bare bones approach that has simplified his tone but made it gigantic.
Track List
01. The Line Up 4:46
02. Window To The Heart 3:30
03. Rule Of Thumb 4:24
04. It's All One (Jam #1) 5:45
05. Hat Trick 5:16
06. Cross My Heart 5:57
07. Once More Twice 6:14
08. Square Root (Jam #2) 4:23
09. Smoke Ring 5:03
10. Point Of You 4:47
11. Right Here, Right Now (Jam #3) 5:22
12. Window To The Heart (Reprise) 2:33

musicians
Jeff Richman - guitar
Mitchel Forman - keyboards
Joel Taylor - drums
Dean Taba - bass

Produced by Jeff Richman


Exact Audio Copy V1.0 beta 1 from 15. November 2010

EAC extraction logfile from 8. April 2012, 13:54

Jeff Richman & Chatterbox / The Line Up

Used drive : HL-DT-STDVDRAM GH20NS10 Adapter: 2 ID: 1

Read mode : Secure
Utilize accurate stream : Yes
Defeat audio cache : Yes
Make use of C2 pointers : No

Read offset correction : 667
Overread into Lead-In and Lead-Out : No
Fill up missing offset samples with silence : Yes
Delete leading and trailing silent blocks : No
Null samples used in CRC calculations : Yes
Used interface : Native Win32 interface for Win NT & 2000
Gap handling : Appended to previous track

Used output format : User Defined Encoder
Selected bitrate : 1024 kBit/s
Quality : High
Add ID3 tag : No
Command line compressor : C:\Program Files\Exact Audio Copy\Flac\flac.exe
Additional command line options : -8 -V -T "ARTIST=%a" -T "TITLE=%t" -T "ALBUM=%g" -T "DATE=%y" -T "TRACKNUMBER=%n" -T "TOTALTRACKS=%x" -T "GENRE=%m" -T "ALBUMARTIST=%v" -T "ALBUM ARTIST=%v" -T "COMMENT=EAC Secure Mode, Test & Copy, AccurateRip, FLAC -8" %s


TOC of the extracted CD

Track | Start | Length | Start sector | End sector
––––––––––––––––––––––––––––-
1 | 0:00.00 | 4:49.56 | 0 | 21730
2 | 4:49.56 | 3:31.39 | 21731 | 37594
3 | 8:21.20 | 4:25.69 | 37595 | 57538
4 | 12:47.14 | 5:47.35 | 57539 | 83598
5 | 18:34.49 | 5:18.02 | 83599 | 107450
6 | 23:52.51 | 5:59.10 | 107451 | 134385
7 | 29:51.61 | 6:16.43 | 134386 | 162628
8 | 36:08.29 | 4:25.26 | 162629 | 182529
9 | 40:33.55 | 5:05.01 | 182530 | 205405
10 | 45:38.56 | 4:49.37 | 205406 | 227117
11 | 50:28.18 | 5:26.20 | 227118 | 251587
12 | 55:54.38 | 2:32.57 | 251588 | 263044


Track 1

Filename D:\Jeff Richman - The Line Up (2011)\01 - The Line Up.wav

Pre-gap length 0:00:02.00

Peak level 98.8 %
Extraction speed 3.0 X
Track quality 100.0 %
Test CRC 7D30058D
Copy CRC 7D30058D
Accurately ripped (confidence 1) [35B135C2]
Copy OK

Track 2

Filename D:\Jeff Richman - The Line Up (2011)\02 - Window To The Heart.wav

Pre-gap length 0:00:03.30

Peak level 94.7 %
Extraction speed 2.7 X
Track quality 99.9 %
Test CRC 2A0693DD
Copy CRC 2A0693DD
Accurately ripped (confidence 1) [B4C97FD4]
Copy OK

Track 3

Filename D:\Jeff Richman - The Line Up (2011)\03 - Rule Of Thumb.wav

Pre-gap length 0:00:02.00

Peak level 98.8 %
Extraction speed 3.5 X
Track quality 100.0 %
Test CRC 20B971B5
Copy CRC 20B971B5
Accurately ripped (confidence 1) [22793208]
Copy OK

Track 4

Filename D:\Jeff Richman - The Line Up (2011)\04 - It's All One (Jam #1).wav

Pre-gap length 0:00:02.20

Peak level 98.8 %
Extraction speed 4.0 X
Track quality 100.0 %
Test CRC 38396539
Copy CRC 38396539
Accurately ripped (confidence 1) [0DEF15D6]
Copy OK

Track 5

Filename D:\Jeff Richman - The Line Up (2011)\05 - Hat Trick.wav

Pre-gap length 0:00:02.00

Peak level 98.8 %
Extraction speed 4.3 X
Track quality 100.0 %
Test CRC 74C654CD
Copy CRC 74C654CD
Accurately ripped (confidence 1) [5F052C6C]
Copy OK

Track 6

Filename D:\Jeff Richman - The Line Up (2011)\06 - Cross My Heart.wav

Pre-gap length 0:00:02.10

Peak level 98.8 %
Extraction speed 4.6 X
Track quality 100.0 %
Test CRC B16DDF88
Copy CRC B16DDF88
Accurately ripped (confidence 1) [5B0E37CB]
Copy OK

Track 7

Filename D:\Jeff Richman - The Line Up (2011)\07 - Once More Twice.wav

Pre-gap length 0:00:01.60

Peak level 98.8 %
Extraction speed 4.5 X
Track quality 99.9 %
Test CRC 84221C2B
Copy CRC 84221C2B
Accurately ripped (confidence 1) [61D414A9]
Copy OK

Track 8

Filename D:\Jeff Richman - The Line Up (2011)\08 - Square Root (Jam #2).wav

Pre-gap length 0:00:02.20

Peak level 98.8 %
Extraction speed 4.5 X
Track quality 99.9 %
Test CRC 534CE4E4
Copy CRC 534CE4E4
Accurately ripped (confidence 1) [BEABC2D2]
Copy OK

Track 9

Filename D:\Jeff Richman - The Line Up (2011)\09 - Smoke Ring.wav

Pre-gap length 0:00:02.00

Peak level 98.8 %
Extraction speed 5.3 X
Track quality 100.0 %
Test CRC EEC0CB25
Copy CRC EEC0CB25
Accurately ripped (confidence 1) [0D662149]
Copy OK

Track 10

Filename D:\Jeff Richman - The Line Up (2011)\10 - Point Of You.wav

Pre-gap length 0:00:02.20

Peak level 98.8 %
Extraction speed 5.5 X
Track quality 100.0 %
Test CRC 45DCFA80
Copy CRC 45DCFA80
Accurately ripped (confidence 1) [2594CCE8]
Copy OK

Track 11

Filename D:\Jeff Richman - The Line Up (2011)\11 - Right Here, Right Now (Jam #3).wav

Pre-gap length 0:00:02.20

Peak level 98.8 %
Extraction speed 5.5 X
Track quality 100.0 %
Test CRC A882FA0E
Copy CRC A882FA0E
Accurately ripped (confidence 1) [540371CB]
Copy OK

Track 12

Filename D:\Jeff Richman - The Line Up (2011)\12 - Window To The Heart (Reprise).wav

Pre-gap length 0:00:04.00

Peak level 93.3 %
Extraction speed 3.3 X
Track quality 99.9 %
Test CRC EFD4D2CA
Copy CRC EFD4D2CA
Cannot be verified as accurate (confidence 1) [9D9D2E0D], AccurateRip returned [FF3D34B6]
Copy OK


11 track(s) accurately ripped
1 track(s) could not be verified as accurate

Some tracks could not be verified as accurate

No errors occurred

End of status report

==== Log checksum 24373FEF79768C04E64D1455128A8775D0F39BFABF32C14B9A1E94D8963CBD4F ====


––––––––––––––––––––––––––––––––––––––––
Analyzed: Jeff Richman & Chatterbox / The Line Up
––––––––––––––––––––––––––––––––––––––––

DR Peak RMS Duration Track
––––––––––––––––––––––––––––––––––––––––
DR7 -0.10 dB -9.08 dB 4:50 01-The Line Up
DR12 -0.47 dB -16.19 dB 3:32 02-Window To The Heart
DR8 -0.10 dB -9.55 dB 4:26 03-Rule Of Thumb
DR9 -0.10 dB -11.77 dB 5:47 04-It's All One (Jam #1)
DR8 -0.10 dB -9.48 dB 5:18 05-Hat Trick
DR8 -0.10 dB -11.40 dB 5:59 06-Cross My Heart
DR7 -0.10 dB -9.85 dB 6:17 07-Once More Twice
DR7 -0.10 dB -10.50 dB 4:25 08-Square Root (Jam #2)
DR8 -0.10 dB -9.17 dB 5:05 09-Smoke Ring
DR7 -0.10 dB -8.58 dB 4:49 10-Point Of You
DR8 -0.10 dB -10.37 dB 5:26 11-Right Here, Right Now (Jam #3)
DR11 -0.60 dB -16.45 dB 2:33 12-Window To The Heart (Reprise)
––––––––––––––––––––––––––––––––––––––––

Number of tracks: 12
Official DR value: DR8

Samplerate: 44100 Hz
Channels: 2
Bits per sample: 16
Bitrate: 435 kbps
Codec: FLAC
================================================================================

Jeff Richman - The Line Up (2011)
Jeff Richman - The Line Up (2011)
Jeff Richman - The Line Up (2011)


Rip by tiburon