Subcategories

Jennifer Rush - Wings Of Desire (1989)

Posted By: v3122
Jennifer Rush - Wings Of Desire (1989)

Jennifer Rush - Wings Of Desire (1989)
EAC | Flac(Image) + Cue + Log & MP3 CBR 320Kbps
CBS Schallplatten, 466000 2 | ~ 305 or 106 Mb | Scans(png) -> 512 Mb
Pop / Rock

Wings of Desire is the fifth studio album released by American singer Jennifer Rush.

After working mainly with American writers and producers for her last two albums, Rush decided to bring her music back to Europe and collaborated with producers Christopher Neil, Phil Ramone and others, including a song ("Angel") written by Abba affiliate Tomas Ledin. Released in late 1989, this album failed to sell as well as earlier albums, although it did make the top 15 in Germany and Switzerland.[citation needed] In the UK the album was released in April 1990 with the lead single "Higher Ground". It failed to chart highly in the UK despite her scoring a hit with "Till I Loved You" the previous year.

Title track "Wings of Desire" was released as a second single…

~ wiki
Jennifer Rush - Wings Of Desire (1989):

Jennifer Rush - Wings Of Desire (1989)

Tracklist:

01. Wings Of Desire [0:03:59.25]
02. Pleasure [0:04:03.62]
03. Midnight Mirage [0:04:11.50]
04. Angel [0:04:36.13]
05. Higher Ground [0:04:18.00]
06. Love Is A Wild Thing [0:04:41.00]
07. For All That [0:04:12.12]
08. Love Is The Language (Of The Heart) [0:04:29.38]
09. Cry [0:03:39.62]
10. Walk Away [0:03:46.00]
11. Where Can You Run [0:03:17.70]

Exact Audio Copy V1.3 from 2. September 2016

EAC extraction logfile from 1. November 2016, 18:13

Jennifer Rush / Wings Of Desire

Used drive : PLEXTOR DVDR PX-810SA Adapter: 1 ID: 0

Read mode : Secure
Utilize accurate stream : Yes
Defeat audio cache : Yes
Make use of C2 pointers : No

Read offset correction : 48
Overread into Lead-In and Lead-Out : No
Fill up missing offset samples with silence : Yes
Delete leading and trailing silent blocks : No
Null samples used in CRC calculations : Yes
Used interface : Installed external ASPI interface

Used output format : User Defined Encoder
Selected bitrate : 1024 kBit/s
Quality : High
Add ID3 tag : No
Command line compressor : C:\Program Files (x86)\Exact Audio Copy\Flac\flac.exe
Additional command line options : -8 -V -T "Date=%year%" -T "Genre=%genre%" -T "COMMENT=ripped by bvstudio®" %source%


TOC of the extracted CD

Track | Start | Length | Start sector | End sector
––––––––––––––––––––––––––––-
1 | 0:00.00 | 3:59.25 | 0 | 17949
2 | 3:59.25 | 4:03.62 | 17950 | 36236
3 | 8:03.12 | 4:11.50 | 36237 | 55111
4 | 12:14.62 | 4:36.13 | 55112 | 75824
5 | 16:51.00 | 4:18.00 | 75825 | 95174
6 | 21:09.00 | 4:41.00 | 95175 | 116249
7 | 25:50.00 | 4:12.12 | 116250 | 135161
8 | 30:02.12 | 4:29.38 | 135162 | 155374
9 | 34:31.50 | 3:39.62 | 155375 | 171861
10 | 38:11.37 | 3:46.00 | 171862 | 188811
11 | 41:57.37 | 3:17.70 | 188812 | 203656


Range status and errors

Selected range

Filename F:\Jennifer Rush - Discography\1989 - Wings Of Desire (1989 - CBS Schallplatten GmbH - Austria - 466000 2)\Jennifer Rush - Wings Of Desire.wav

Peak level 100.0 %
Extraction speed 6.6 X
Range quality 99.9 %
Test CRC F594A8FC
Copy CRC F594A8FC
Copy OK

No errors occurred


AccurateRip summary

Track 1 accurately ripped (confidence 61) [826B0FF7] (AR v2)
Track 2 accurately ripped (confidence 61) [F58AB719] (AR v2)
Track 3 accurately ripped (confidence 61) [972E56A8] (AR v2)
Track 4 accurately ripped (confidence 61) [F1C69506] (AR v2)
Track 5 accurately ripped (confidence 60) [BE0325AD] (AR v2)
Track 6 accurately ripped (confidence 60) [4E720603] (AR v2)
Track 7 accurately ripped (confidence 61) [2DB4A404] (AR v2)
Track 8 accurately ripped (confidence 61) [1CA08A94] (AR v2)
Track 9 accurately ripped (confidence 60) [76DE335A] (AR v2)
Track 10 accurately ripped (confidence 61) [A6481678] (AR v2)
Track 11 accurately ripped (confidence 59) [05B76CB6] (AR v2)

All tracks accurately ripped

End of status report

–– CUETools DB Plugin V2.1.6

[CTDB TOCID: kcjwLGDEARr7VQ.sqshRAlj4XQ8-] found
Submit result: already submitted
Track | CTDB Status
1 | (123/123) Accurately ripped
2 | (123/123) Accurately ripped
3 | (123/123) Accurately ripped
4 | (122/123) Accurately ripped
5 | (123/123) Accurately ripped
6 | (123/123) Accurately ripped
7 | (123/123) Accurately ripped
8 | (123/123) Accurately ripped
9 | (123/123) Accurately ripped
10 | (123/123) Accurately ripped
11 | (123/123) Accurately ripped


==== Log checksum F4E0814EDAD479FC6BABEC6299EC89518D7D11CBDCF6CF283971B0C108A96CE5 ====

foobar2000 1.2.9 / Dynamic Range Meter 1.1.1
log date: 2017-01-08 01:24:44

––––––––––––––––––––––––––––––––––––––––
Analyzed: Jennifer Rush / Wings Of Desire
––––––––––––––––––––––––––––––––––––––––

DR Peak RMS Duration Track
––––––––––––––––––––––––––––––––––––––––
DR13 -0.17 dB -14.62 dB 3:59 01-Wings Of Desire
DR12 -0.13 dB -15.21 dB 4:04 02-Pleasure
DR15 -0.17 dB -16.48 dB 4:12 03-Midnight Mirage
DR15 -0.47 dB -17.82 dB 4:36 04-Angel
DR14 0.00 dB -16.59 dB 4:18 05-Higher Ground
DR13 0.00 dB -14.85 dB 4:41 06-Love Is A Wild Thing
DR14 -0.14 dB -16.88 dB 4:12 07-For All That
DR14 0.00 dB -15.82 dB 4:30 08-Love Is The Language (Of The Heart)
DR15 -0.25 dB -18.04 dB 3:40 09-Cry
DR14 -0.12 dB -16.43 dB 3:46 10-Walk Away
DR14 -0.08 dB -17.33 dB 3:18 11-Where Can You Run
––––––––––––––––––––––––––––––––––––––––

Number of tracks: 11
Official DR value: DR14

Samplerate: 44100 Hz
Channels: 2
Bits per sample: 16
Bitrate: 915 kbps
Codec: FLAC

[CUETools log; Date: 08.01.2017 1:20:36; Version: 2.1.4]
[CTDB TOCID: kcjwLGDEARr7VQ.sqshRAlj4XQ8-] found.
Track | CTDB Status
1 | (134/134) Accurately ripped
2 | (134/134) Accurately ripped
3 | (134/134) Accurately ripped
4 | (133/134) Accurately ripped
5 | (134/134) Accurately ripped
6 | (134/134) Accurately ripped
7 | (134/134) Accurately ripped
8 | (134/134) Accurately ripped
9 | (134/134) Accurately ripped
10 | (134/134) Accurately ripped
11 | (134/134) Accurately ripped
[AccurateRip ID: 00131859-00a5875c-810a9b0b] found.
Track [ CRC | V2 ] Status
01 [c00235ed|826b0ff7] (35+62/97) Accurately ripped
02 [61f5c48c|f58ab719] (36+62/98) Accurately ripped
03 [162cedd2|972e56a8] (35+62/97) Accurately ripped
04 [1ad07c9d|f1c69506] (36+62/98) Accurately ripped
05 [aa9d77cd|be0325ad] (35+61/96) Accurately ripped
06 [4fbb360a|4e720603] (35+61/96) Accurately ripped
07 [5c8b78b6|2db4a404] (35+62/97) Accurately ripped
08 [de68c217|1ca08a94] (36+62/98) Accurately ripped
09 [cad0b7eb|76de335a] (35+61/96) Accurately ripped
10 [67802c68|a6481678] (35+62/97) Accurately ripped
11 [fff13b2c|05b76cb6] (35+60/97) Accurately ripped

Track Peak [ CRC32 ] [W/O NULL] [ LOG ]
– 100,0 [F594A8FC] [13F75C09] CRC32
01 98,0 [30E69B4D] [D986F316]
02 98,5 [38833274] [A8F0BB70]
03 98,1 [34EADC25] [9A8877FF]
04 94,7 [E70EA883] [E16454AD]
05 100,0 [77393B93] [04629247]
06 100,0 [C14365EE] [941AF82E]
07 98,3 [9CCD51D7] [71556680]
08 100,0 [F41558F5] [28259E49]
09 97,1 [B34066EB] [7F39C203]
10 98,6 [666E8F6D] [A2511014]
11 99,1 [C72F063B] [0D2FFC50]

Jennifer Rush - Wings Of Desire (1989)

All thanks go to the original releaser

Jennifer Rush in my Blog

Download Jennifer Rush - Wings Of Desire (1989):