Subcategories

Jethro Tull - Stand Up (1969) {1993, Japan 1st Press}

Posted By: popsakov
Jethro Tull - Stand Up (1969) {1993, Japan 1st Press}

Jethro Tull - Stand Up (1969) {1993, Japan 1st Press}
EAC Rip | WV (Img) + Cue + Log ~ 222 Mb | MP3 CBR320 ~ 94 Mb
Scans Included (JPG, 300 dpi) | RAR 5% Recovery
Progressive Rock, Art Rock, Folk Rock | Toshiba-EMI #TOCP-7814

Stand Up is the second studio album by the British rock band Jethro Tull, released in 1969. Stand Up represents the first album project on which Anderson was in full control of the music and lyrics. The result was an eclectic album with various styles appearing in its songs, yet an album which remained somewhat in the blues rock mould, which would be the last such album from Jethro Tull. The album quickly went to number 1 in the UK charts.

***************

Jethro Tull - Stand Up (1969) {1993, Japan 1st Press}

Jethro Tull - Stand Up (1969) {1993, Japan 1st Press}

Track List:

01. A New Day Yesterday [0:04:11.20]
02. Jeffrey Goes To Leicester Square [0:02:11.27]
03. Bouree [0:03:48.00]
04. Back To The Family [0:03:54.05]
05. Look Into The Sun [0:04:24.05]
06. Nothing Is Easy [0:04:27.63]
07. Fat Man [0:02:53.02]
08. We Used To Know [0:04:03.45]
09. Reasons For Waiting [0:04:07.68]
10. For A Thousand Mothers [0:03:22.37]

Personnel:
Ian Anderson – vocals, flute, acoustic guitar, Hammond organ, piano, mandolin, balalaika, mouth organ, producer
Martin Lancelot Barre – electric guitar, flute on tracks 2 and 9
Glenn Cornick – bass guitar (all tracks but 5)
Clive Bunker – drums, percussion
Andy Johns – engineer, bass guitar on track 5
David Palmer – string arrangements and conductor on track 9

Exact Audio Copy V1.2 from 12. August 2016

EAC extraction logfile from 11. August 2017, 14:56

Jethro Tull / Stand Up [TOCP-7814]

Used drive : HL-DT-STBD-RE BH10LS38 Adapter: 1 ID: 1

Read mode : Secure
Utilize accurate stream : Yes
Defeat audio cache : Yes
Make use of C2 pointers : No

Read offset correction : 667
Overread into Lead-In and Lead-Out : No
Fill up missing offset samples with silence : Yes
Delete leading and trailing silent blocks : No
Null samples used in CRC calculations : Yes
Used interface : Installed external ASPI interface

Used output format : User Defined Encoder
Selected bitrate : 128 kBit/s
Quality : High
Add ID3 tag : No
Command line compressor : C:\Program Files (x86)\Exact Audio Copy\wavpack-4.60.1\wavpack.exe
Additional command line options : -hm -w "Year=%year%" -w "Genre=%genre%" %source% %dest%


TOC of the extracted CD

Track | Start | Length | Start sector | End sector
––––––––––––––––––––––––––––-
1 | 0:00.00 | 4:11.20 | 0 | 18844
2 | 4:11.20 | 2:11.27 | 18845 | 28696
3 | 6:22.47 | 3:48.00 | 28697 | 45796
4 | 10:10.47 | 3:54.05 | 45797 | 63351
5 | 14:04.52 | 4:24.05 | 63352 | 83156
6 | 18:28.57 | 4:27.63 | 83157 | 103244
7 | 22:56.45 | 2:53.02 | 103245 | 116221
8 | 25:49.47 | 4:03.45 | 116222 | 134491
9 | 29:53.17 | 4:07.68 | 134492 | 153084
10 | 34:01.10 | 3:22.37 | 153085 | 168271


Range status and errors

Selected range

Filename G:\Rips by Alder\Jethro Tull - Stand Up [TOCP-7814].wav

Peak level 88.5 %
Extraction speed 6.9 X
Range quality 100.0 %
Test CRC 25D3AB2D
Copy CRC 25D3AB2D
Copy OK

No errors occurred


AccurateRip summary

Track 1 not present in database
Track 2 not present in database
Track 3 not present in database
Track 4 not present in database
Track 5 not present in database
Track 6 not present in database
Track 7 not present in database
Track 8 not present in database
Track 9 not present in database
Track 10 not present in database

None of the tracks are present in the AccurateRip database

End of status report

–– CUETools DB Plugin V2.1.6

[CTDB TOCID: ekvtJQz_Oe_Mga19Du4IXuNtI78-] found
Submit result: ekvtJQz_Oe_Mga19Du4IXuNtI78- has been confirmed
Track | CTDB Status
1 | (1/1) Accurately ripped
2 | (1/1) Accurately ripped
3 | (1/1) Accurately ripped
4 | (1/1) Accurately ripped
5 | (1/1) Accurately ripped
6 | (1/1) Accurately ripped
7 | (1/1) Accurately ripped
8 | (1/1) Accurately ripped
9 | (1/1) Accurately ripped
10 | (1/1) Accurately ripped


==== Log checksum 481AA92A17EB2981FCCF20C03D687ECB63534205C4622F54FBF91FE552FEDE91 ====

foobar2000 1.2.6 / Dynamic Range Meter 1.1.1
log date: 2017-08-12 08:43:41

––––––––––––––––––––––––––––––––––––––––
Analyzed: Jethro Tull / Stand Up [TOCP-7814]
––––––––––––––––––––––––––––––––––––––––

DR Peak RMS Duration Track
––––––––––––––––––––––––––––––––––––––––
DR11 -1.10 dB -14.37 dB 4:11 01-A New Day Yesterday
DR11 -1.98 dB -16.50 dB 2:11 02-Jeffrey Goes To Leicester Square
DR13 -3.92 dB -20.91 dB 3:48 03-Bouree
DR11 -1.05 dB -18.15 dB 3:54 04-Back To The Family
DR12 -4.13 dB -20.88 dB 4:24 05-Look Into The Sun
DR12 -2.13 dB -19.11 dB 4:28 06-Nothing Is Easy
DR13 -1.92 dB -20.06 dB 2:53 07-Fat Man
DR12 -2.11 dB -18.96 dB 4:04 08-We Used To Know
DR11 -5.03 dB -20.27 dB 4:08 09-Reasons For Waiting
DR11 -1.85 dB -16.97 dB 3:22 10-For A Thousand Mothers
––––––––––––––––––––––––––––––––––––––––

Number of tracks: 10
Official DR value: DR12

Samplerate: 44100 Hz
Channels: 2
Bits per sample: 16
Bitrate: 778 kbps
Codec: WavPack
================================================================================

[CUETools log; Date: 12.08.2017 8:43:52; Version: 2.1.5]
[CTDB TOCID: ekvtJQz_Oe_Mga19Du4IXuNtI78-] found.
Track | CTDB Status
1 | (2/2) Accurately ripped
2 | (2/2) Accurately ripped
3 | (2/2) Accurately ripped
4 | (2/2) Accurately ripped
5 | (2/2) Accurately ripped
6 | (2/2) Accurately ripped
7 | (2/2) Accurately ripped
8 | (2/2) Accurately ripped
9 | (2/2) Accurately ripped
10 | (2/2) Accurately ripped
[AccurateRip ID: 000df6dc-00706b09-7708c30a] disk not present in database.

Track Peak [ CRC32 ] [W/O NULL] [ LOG ]
– 88,5 [25D3AB2D] [DC8A3E33] CRC32
01 88,1 [1B57459E] [4F619C5C]
02 79,6 [01931799] [FCFE08BE]
03 63,6 [2DE68ED4] [ADBE3527]
04 88,5 [5DA83267] [05D73CC9]
05 62,1 [5570ACA3] [E7F6E0D6]
06 78,2 [DF9F5CAC] [F96303F0]
07 80,1 [6D928ABB] [654365CC]
08 78,3 [BC168977] [A8CB4404]
09 56,0 [F312D3ED] [1CC56CC6]
10 80,8 [9DB47EA9] [6EA20587]

Jethro Tull - Stand Up (1969) {1993, Japan 1st Press}

All thanks go to Alder

>>> Jethro Tull in my Blog <<<

Download from icerbox.com: