Subcategories
Tags
Language
Tags

Jim O'Keeffe - Riverfolk (2013)

Posted By: popsakov
Jim O'Keeffe - Riverfolk (2013)

Jim O'Keeffe - Riverfolk (2013)
EAC Rip | FLAC (Img) + Cue + Log ~ 525 Mb | MP3 CBR320 ~ 179 Mb
Full Scans | 01:06:06 | RAR 5% Recovery
Blues, Blues Rock, Folk, Country | Doon Music #Doon 010

Riverfolk is an album with it's roots springing from the Irish town of Athy, but whose branches touch every corner of the world. From the opening track ‘Down at Joe’s’ to the final track ‘Concerning Lily Moreau’ there is a strong presence on this album of the hauntingly sad character of Lily Moreau, who met an untimely end in ‘Dark Water’. Mixed with a collection of blues and soulful ballads, this new album will certainly appeal to anyone who has a feeling for the blues and an appetite for some fresh melodies and lyrics from a truly talented Irish songwriter.
Jim O'Keeffe - Riverfolk (2013)

Track List:

01. Down At Joe's [05:29]
02. Somewhere Left to Hide [11:39]
03. Boardwalk [05:23]
04. Warrior of the Wasteland [09:40]
05. Third Time's a Charm [04:34]
06. Without Love [07:38]
07. S.M.E.B.B. [00:47]
08. Too Close to the Sun [05:05]
09. Do It With a Smile [02:41]
10. Concerning Lily Moreau [13:09]

Exact Audio Copy V0.99 prebeta 5 from 4. May 2009

Отчёт EAC об извлечении, выполненном 3. марта 2013, 18:39

Jim O'Keeffe / Riverfolk

Дисковод: PLEXTOR DVDR PX-880SA Adapter: 1 ID: 0

Режим чтения : Достоверность
Использование точного потока : Да
Отключение кэша аудио : Да
Использование указателей C2 : Нет

Коррекция смещения при чтении : 6
Способность читать области Lead-in и Lead-out : Нет
Заполнение пропущенных сэмплов тишиной : Да
Удаление блоков с тишиной в начале и конце : Нет
При вычислениях CRC использовались нулевые сэмплы : Да
Интерфейс : Установленный внешний ASPI-интерфейс

Выходной формат : Пользовательский кодировщик
Выбранный битрейт : 1024 kBit/s
Качество : Высокий
Добавление ID3-тэга : Нет
Утилита сжатия : C:\Program Files\Exact Audio Copy\FLAC\FLAC.EXE
Дополнительные параметры : -10 -V -T "ARTIST=%a" -T "TITLE=%t" -T "ALBUM=%g" -T "DATE=%y" -T "TRACKNUMBER=%n" -T "GENRE=%m" -T "COMMENT=%e" %s -o %d


TOC извлечённого CD

Трек | Старт | Длительность | Начальный сектор | Конечный сектор
––––––––––––––––––––––––––––––––––-
1 | 0:00.00 | 5:31.22 | 0 | 24846
2 | 5:31.22 | 11:39.23 | 24847 | 77294
3 | 17:10.45 | 5:22.42 | 77295 | 101486
4 | 22:33.12 | 9:39.71 | 101487 | 144982
5 | 32:13.08 | 4:34.54 | 144983 | 165586
6 | 36:47.62 | 7:37.60 | 165587 | 199921
7 | 44:25.47 | 0:46.38 | 199922 | 203409
8 | 45:12.10 | 5:05.37 | 203410 | 226321
9 | 50:17.47 | 2:41.21 | 226322 | 238417
10 | 52:58.68 | 13:06.52 | 238418 | 297419


Характеристики диапазона извлечения и сообщения об ошибках

Выбранный диапазон

Имя файла D:\BitComet\Jim O'Keeffe - Riverfolk(2013)(flac)\Jim O'Keeffe - Riverfolk.wav

Пиковый уровень 100.0 %
Качество диапазона 100.0 %
CRC теста 1C7D3451
CRC копии 1C7D3451
Копирование… OK

Ошибок не произошло


AccurateRip: сводка

Трек 1 нет в базе данных
Трек 2 нет в базе данных
Трек 3 нет в базе данных
Трек 4 нет в базе данных
Трек 5 нет в базе данных
Трек 6 нет в базе данных
Трек 7 нет в базе данных
Трек 8 нет в базе данных
Трек 9 нет в базе данных
Трек 10 нет в базе данных

Ни одного трека нет в базе AccurateRip

Конец отчёта

Jim O'Keeffe - Riverfolk (2013)


All thanks go to izia1956

>>> My Blog <<<

DOWNLOAD: