Subcategories

The Jimi Hendrix Experience - Live at Clark University (1999) [Re-Up]

Posted By: Designol
The Jimi Hendrix Experience - Live at Clark University (1999) [Re-Up]

The Jimi Hendrix Experience - Live at Clark University (1999)
EAC | FLAC | Tracks (Cue&Log) ~ 420 Mb (incl 5%) | Mp3 (CBR320) ~ 169 Mb (incl 5%) | Scans ~ 76 Mb
Psychedelic Rock, Hard Rock, Blues Rock | Label: Dagger Records | # DBRD-12033 | Time: 01:10:37

The Jimi Hendrix Experience: Live At Clark University represents the second release by Dagger Records. Like no Hendrix live disc ever before issued, The Jimi Hendrix Experience: Live At Clark University provides a window into one night on the road with the Experience. Beyond the memorable concert performances of "Fire", "Red House", "Foxey Lady", "Purple Haze", and "Wild Thing" featured here, Live At Clark University provides a further treat in the form of extended interviews with Jimi, Mitch, and Noel. What makes this collection so unique is the perspective and extraordinary insight gained by listening to the interviews conducted with each band member prior to and immediately following the group's performance.

Like no Hendrix live disc ever before issued, The Jimi Hendrix Experience: Live At Clark University provides a window into one night on the road with the Experience. Beyond the memorable concert performances of "Fire", "Red House", "Foxey Lady", "Purple Haze", and "Wild Thing" featured here, Live At Clark University provides a further treat in the form of extended interviews with Jimi, Mitch, and Noel. What makes this collection so unique is the perspective and extraordinary insight gained by listening to the interviews conducted with each band member prior to and immediately following the group's performance.

The interviews, conducted backstage in a nearby dressing room, afford a rare opportunity to eavesdrop on Jimi and the group. Jimi's conversation is candid, relaxed, and informative. His philosophy and goals for his music are clear and well stated. The different personalities within the group are also evident, as Mitch and Noel share their insights on the group's accomplishments and musical course. The live recordings which make up the core of Live At Clark University are no less powerful or revealing. The five songs included here showcase the optimism and vibrant enthusiasm of the fertile period between Axis: Bold As Love and Electric Ladyland. Vigorous renditions of such classic fare as "Fire" and "Foxey Lady" clearly reveal the group's undeniable chemistry and skill. The intimate confines of Atwood Hall, Clark University's student auditorium, placed the group in close proximity to its fans. The overwhelming combination of sheer volume and Jimi's dynamic stage show left the sold out audience thunderstruck.

The Experience had traveled to Clark University on March 15, 1968 as part of their extensive US tour in support of Axis: Bold As Love, their second album. Clark University, a small, respected Massachusetts university, is located in Worcester, a city located approximately one hour west of Boston. Filled to capacity, Atwood Hall could accommodate more than six hundred students. Tickets for the concerts were modestly priced, with seats priced at $3.00, $3.50, and $4.00.

Live At Clark University begins with Jimi in his dressing after following the conclusion of the first set. In typical fashion, he takes the failure of the Experience's battered stage gear to heart, hoping he has not let the audience down. The conversation then turns to Jimi's musical influences. Seven minutes into Jimi's interview, one can hear the opening strains of the second set by the Soft Machine.

Shortly after Jimi's interview drew to a close, the Experience took the stage. Live At Clark University begins with "Fire" and continues through "Wild Thing". One or more songs might have preceded "Fire", but no further recordings are available beyond what is represented on this collection.

Although Live At Clark University has been drawn from professionally recorded two track masters, it is not without an occasional flaw. Nonetheless, these tapes represent the only known documentation of this spirited performance. We hope you enjoy the experience!

– Dagger Records

The Jimi Hendrix Experience - Live at Clark University (1999) [Re-Up]



Tracklist:

1. Jimi Hendrix: Pre-Concert Interview (20:56)
2. Fire (3:33)
3. Red House (7:09)
4. Foxey Lady (4:31)
5. Purple Haze (5:05)
6. Wild Thing (8:12)
7. Noel Redding: Post-Concert Interview (7:13)
8. Mitch Mitchell: Post-Concert Interview (8:58)
9. Jimi Hendrix: Post-Concert Interview (4:54)


Exact Audio Copy V0.99 prebeta 4 from 23. January 2008

EAC extraction logfile from 26. August 2010, 0:11

Jimi Hendrix Experience / Live At Clark University

Used drive : HL-DT-STDVDRAM GH15F Adapter: 1 ID: 0

Read mode : Secure
Utilize accurate stream : Yes
Defeat audio cache : Yes
Make use of C2 pointers : No

Read offset correction : 667
Overread into Lead-In and Lead-Out : No
Fill up missing offset samples with silence : Yes
Delete leading and trailing silent blocks : No
Null samples used in CRC calculations : Yes
Used interface : Native Win32 interface for Win NT & 2000
Gap handling : Appended to previous track

Used output format : Internal WAV Routines
Sample format : 44.100 Hz; 16 Bit; Stereo


TOC of the extracted CD

Track | Start | Length | Start sector | End sector
––––––––––––––––––––––––––––-
1 | 0:00.00 | 20:56.40 | 0 | 94239
2 | 20:56.40 | 3:33.63 | 94240 | 110277
3 | 24:30.28 | 7:09.47 | 110278 | 142499
4 | 31:40.00 | 4:31.70 | 142500 | 162894
5 | 36:11.70 | 5:05.30 | 162895 | 185799
6 | 41:17.25 | 8:12.48 | 185800 | 222747
7 | 49:29.73 | 7:13.50 | 222748 | 255272
8 | 56:43.48 | 8:58.72 | 255273 | 295694
9 | 65:42.45 | 4:54.20 | 295695 | 317764


Track 1

Filename O:\Music\EAC Rips\Jimi Hendrix Experience - 1999 - Live At Clark University\01 - Jimi Hendrix Pre-Concert Interview.wav

Pre-gap length 0:00:02.00

Peak level 100.0 %
Track quality 99.9 %
Test CRC 5A0B6BA9
Copy CRC 5A0B6BA9
Cannot be verified as accurate (confidence 2) [CE650527], AccurateRip returned [C3B92637]
Copy OK

Track 2

Filename O:\Music\EAC Rips\Jimi Hendrix Experience - 1999 - Live At Clark University\02 - Fire.wav

Peak level 100.0 %
Track quality 99.9 %
Test CRC F6BAC899
Copy CRC F6BAC899
Cannot be verified as accurate (confidence 2) [904BBE23], AccurateRip returned [905F38EA]
Copy OK

Track 3

Filename O:\Music\EAC Rips\Jimi Hendrix Experience - 1999 - Live At Clark University\03 - Red House.wav

Peak level 100.0 %
Track quality 100.0 %
Test CRC E0F8E7DC
Copy CRC E0F8E7DC
Cannot be verified as accurate (confidence 2) [596D6157], AccurateRip returned [67CF8A39]
Copy OK

Track 4

Filename O:\Music\EAC Rips\Jimi Hendrix Experience - 1999 - Live At Clark University\04 - Foxey Lady.wav

Peak level 100.0 %
Track quality 100.0 %
Test CRC ABCF481A
Copy CRC ABCF481A
Cannot be verified as accurate (confidence 2) [0AC3078F], AccurateRip returned [B439E0E2]
Copy OK

Track 5

Filename O:\Music\EAC Rips\Jimi Hendrix Experience - 1999 - Live At Clark University\05 - Purple Haze.wav

Peak level 100.0 %
Track quality 100.0 %
Test CRC E8642B5A
Copy CRC E8642B5A
Cannot be verified as accurate (confidence 2) [70D1F1CD], AccurateRip returned [D5927AF8]
Copy OK

Track 6

Filename O:\Music\EAC Rips\Jimi Hendrix Experience - 1999 - Live At Clark University\06 - Wild Thing.wav

Peak level 100.0 %
Track quality 100.0 %
Test CRC D39336D9
Copy CRC D39336D9
Cannot be verified as accurate (confidence 2) [C22B89A0], AccurateRip returned [E2DC7ECD]
Copy OK

Track 7

Filename O:\Music\EAC Rips\Jimi Hendrix Experience - 1999 - Live At Clark University\07 - Noel Redding- Post-Concert Interview.wav

Peak level 100.0 %
Track quality 99.9 %
Test CRC 2F298290
Copy CRC 2F298290
Cannot be verified as accurate (confidence 2) [48E28282], AccurateRip returned [985A2C7A]
Copy OK

Track 8

Filename O:\Music\EAC Rips\Jimi Hendrix Experience - 1999 - Live At Clark University\08 - Mitch Mitchell- Post-Concert Interview.wav

Peak level 76.2 %
Track quality 100.0 %
Test CRC 76B84852
Copy CRC 76B84852
Cannot be verified as accurate (confidence 2) [9353FF41], AccurateRip returned [36098E25]
Copy OK

Track 9

Filename O:\Music\EAC Rips\Jimi Hendrix Experience - 1999 - Live At Clark University\09 - Jimi Hendrix- Post-Concert Interview.wav

Peak level 84.6 %
Track quality 100.0 %
Test CRC 3FB7DB11
Copy CRC 3FB7DB11
Cannot be verified as accurate (confidence 2) [50C90808], AccurateRip returned [BBDFCF0C]
Copy OK


No tracks could be verified as accurate
You may have a different pressing from the one(s) in the database

No errors occurred

End of status report

[CUETools log; Date: 18.06.2016 12:49:30; Version: 2.1.4]
[CTDB TOCID: vmR7mkdw_YmI2S0iVBS1mngxmE8-] found.
Track | CTDB Status
1 | (8/8) Accurately ripped
2 | (8/8) Accurately ripped
3 | (8/8) Accurately ripped
4 | (8/8) Accurately ripped
5 | (8/8) Accurately ripped
6 | (8/8) Accurately ripped
7 | (8/8) Accurately ripped
8 | (8/8) Accurately ripped
9 | (8/8) Accurately ripped
[AccurateRip ID: 001b453a-00be1ba3-82108c09] found.
Track [ CRC | V2 ] Status
01 [ce650527|d49dec49] (00+07/09) Accurately ripped
02 [904bbe23|d76d05f3] (00+09/11) Accurately ripped
03 [596d6157|1e6bb1b0] (00+09/11) Accurately ripped
04 [0ac3078f|8978a6fd] (00+09/11) Accurately ripped
05 [70d1f1cd|3597fce0] (00+09/11) Accurately ripped
06 [c22b89a0|93a23f8e] (00+09/11) Accurately ripped
07 [48e28282|4b8d1783] (02+07/11) Accurately ripped
08 [9353ff41|96e02238] (02+07/11) Accurately ripped
09 [50c90808|df535504] (02+07/11) Accurately ripped
Offsetted by -732:
01 [c3b92637] (02/09) Accurately ripped
02 [905f38ea] (02/11) Accurately ripped
03 [67cf8a39] (02/11) Accurately ripped
04 [b439e0e2] (02/11) Accurately ripped
05 [d5927af8] (02/11) Accurately ripped
06 [e2dc7ecd] (02/11) Accurately ripped
07 [985a2c7a] (02/11) Accurately ripped
08 [36098e25] (02/11) Accurately ripped
09 [bbdfcf0c] (02/11) Accurately ripped

Track Peak [ CRC32 ] [W/O NULL] [ LOG ]
– 99,9 [4822D169] [CDB6F564]
01 99,9 [5A0B6BA9] [3257E4D5] CRC32
02 99,9 [F6BAC899] [E8D95D5E] CRC32
03 99,9 [E0F8E7DC] [90C75E72] CRC32
04 99,9 [ABCF481A] [DE070E7E] CRC32
05 99,9 [E8642B5A] [7C42CB29] CRC32
06 99,9 [D39336D9] [DE3A2E47] CRC32
07 99,9 [2F298290] [008B6987] CRC32
08 76,2 [76B84852] [F138FE31] CRC32
09 84,6 [3FB7DB11] [2DCCBE01] CRC32

foobar2000 1.2 / Dynamic Range Meter 1.1.1
log date: 2016-06-18 12:51:26

––––––––––––––––––––––––––––––––––––––––
Analyzed: The Jimi Hendrix Experience / Live at Clark University
––––––––––––––––––––––––––––––––––––––––

DR Peak RMS Duration Track
––––––––––––––––––––––––––––––––––––––––
DR16 0.00 dB -20.13 dB 20:57 01-Jimi Hendrix: Pre-Concert Interview
DR8 0.00 dB -10.87 dB 3:34 02-Fire
DR9 0.00 dB -10.45 dB 7:10 03-Red House
DR8 0.00 dB -9.47 dB 4:32 04-Foxey Lady
DR8 0.00 dB -9.62 dB 5:05 05-Purple Haze
DR9 0.00 dB -11.07 dB 8:13 06-Wild Thing
DR20 0.00 dB -22.90 dB 7:14 07-Noel Redding: Post-Concert Interview
DR14 -2.36 dB -18.90 dB 8:59 08-Mitch Mitchell: Post-Concert Interview
DR16 -1.45 dB -21.86 dB 4:54 09-Jimi Hendrix: Post-Concert Interview
––––––––––––––––––––––––––––––––––––––––

Number of tracks: 9
Official DR value: DR12

Samplerate: 44100 Hz
Channels: 2
Bits per sample: 16
Bitrate: 696 kbps
Codec: FLAC
================================================================================

The Jimi Hendrix Experience - Live at Clark University (1999) [Re-Up]

The Jimi Hendrix Experience - Live at Clark University (1999) [Re-Up]