Subcategories

Jimi Hendrix - In The Studio: Volumes 1-10 (2006) 10 CD Box Set [Re-Up]

Posted By: Designol
Jimi Hendrix - In The Studio: Volumes 1-10 (2006) 10 CD Box Set [Re-Up]

Jimi Hendrix - In The Studio: Volumes 1-10 (2006) 10 CD Box Set
EAC | FLAC | Tracks (Cue&Log) ~ 4 Gb (incl 5%) | Mp3 (CBR320) ~ 1.6 Gb (incl 5%) | Scans ~ 90 Mb
Psychedelic Rock, Blues Rock, Acid Rock, Hard Rock | Label: Reclamation | # RECD 1011 | Time: 11:00:31

Regarded by none other than the record collector magazine, as being the finest collection of "Hendrix" sessions ever released, this limited edition ten cd box set contains over 100 tracks over ten hours of music & contains some of finest sessions/outakes "Jimi Hendrix" ever made. This box set is limited to a 1000 copies, each one is individually numbered, it also contains a 20 page detailed booklet.

Hendrix acolytes have been inundated with outtake releases since day one (at last count there were over 160). The boom in CD technology just made it easier to scoop up and digitise any studio reels that could be found. Compare that to the quintet of original vinyl (Are You Experienced, Axis: Bold As Love, Electric Ladyland, Smash Hits and Band Of Gypsys) and the mind boggles at how an artist who only recorded for four years could possibly amass so much unreleased material. After his untimely death in September 1970, the floodgates well and truly opened. Posthumous albums such as Rainbow Bridge and Hendrix In The West are still essential, but no one in their right mind would give a passing glance to disgraces the likes of Woke Up This Morning & Found Myself Dead. We’ve had some fine stabs at compiling the lost Hendrix: Live & Unreleased and the incredible, 56-track, purple-boxed Jimi Hendrix Experience. But nothing has really shown how he developed his music. In The Studio does just that with aplomb. Using original tapes sourced from the Michael Jeffrey Estate (a private contact says a skip in New York!), on Disc 10 you can hear just how enthusiastic and fast Hendrix was recording Are You Experienced. Some of the versions of Can You See Me and Fire contain such succulent psych guitar that you’re left begging for more. Disc One covers at the Axis sessions, and Hendrix’s focus in Olympic Studios is clear. The best disc has a first proper Castles Made Of Sand outtake and two incredibly psychedelic versions of Little One: a Hendrix sitar-drone jam with Traffic (allegedly including Brian Jones). History states that Chas Chandler couldn’t stand the Electric Ladyland sessions once they moved to New York City. Yawning jams with Hendrix gobbling LSD and snorting cocaine drove him back to England. At least half the set is taken up with these: a 36-minute Voodoo Chile, and one disc almost dedicated to Rainy Day Dream Away are for fanatics alone. The sleevenotes, attributed to Jon Kirkman, are full of howlers and should be treated with caution. One track, Closer To The Truth (March 1969) is credited to Hendrix as a ‘sound collage’. A call to Kathy Etchingham confirmed that it’s just a stoned Hendrix reciting poetry to a New Animals record. But in terms of sound quality and exhaustiveness, In The Studio is the best Hendrix outtakes set extant.

Review by Mark Prendergast





Jimi Hendrix - In The Studio: Volumes 1-10 (2006) 10 CD Box Set [Re-Up]

Volume 1
EAC | FLAC | Tracks (Cue&Log) ~ 327 Mb (incl 5%) | Mp3 (CBR320) ~ 135 Mb (incl 5%) | Time: 00:51:33


Tracklist:

01. Wait Until Tomorrow (03:29)
02. Spanish Castle Magic (02:45)
03. Golden Rose (One Rainy Wish) (03:57)
04. Ain't No Telling #1 (01:54)
05. South Saturn Delta (04:55)
06. Little One #1 (03:34)
07. Little One #2 (03:36)
08. Castle Made Of Sand (02:51)
09. Ain't No Telling #2 (01:54)
10. She's So Fine (02:40)
11. Up From The Skies (02:58)
12. Bold As Love (03:29)
13. Little Miss Lover (02:17)
14. Waterfall (May This Be Love) (03:13)
15. Have You Ever Heard (03:48)
16. Dream (02:08)
17. Dance (01:57)


Exact Audio Copy V0.99 prebeta 5 from 4. May 2009

EAC extraction logfile from 10. May 2011, 20:38

Jimi Hendrix / In The Studio Volume 1

Used drive : PLEXTOR CD-R PREMIUM2 Adapter: 4 ID: 0

Read mode : Secure
Utilize accurate stream : Yes
Defeat audio cache : Yes
Make use of C2 pointers : No

Read offset correction : 30
Overread into Lead-In and Lead-Out : Yes
Fill up missing offset samples with silence : Yes
Delete leading and trailing silent blocks : No
Null samples used in CRC calculations : Yes
Used interface : Native Win32 interface for Win NT & 2000
Gap handling : Appended to previous track

Used output format : User Defined Encoder
Selected bitrate : 1024 kBit/s
Quality : High
Add ID3 tag : No
Command line compressor : C:\Program Files (x86)\Exact Audio Copy\Flac\flac.exe
Additional command line options : -8 -V -T "ARTIST=%a" -T "TITLE=%t" -T "ALBUM=%g" -T "DATE=%y" -T "TRACKNUMBER=%n" -T "TOTALTRACKS=%x" -T "GENRE=%m" -T "ALBUMARTIST=%v" -T "ALBUM ARTIST=%v" -T "COMMENT=EAC Secure Mode, Test & Copy, AccurateRip, FLAC -8" %s


Track 1

Filename J:\Kurfitza\01 - Wait Until Tomorrow.wav

Pre-gap length 0:00:02.00

Peak level 100.0 %
Track quality 100.0 %
Test CRC FD7068F2
Copy CRC FD7068F2
Copy OK

Track 2

Filename J:\Kurfitza\02 - Spanish Castle Magic.wav

Pre-gap length 0:00:02.60

Peak level 91.0 %
Track quality 100.0 %
Test CRC 1128EC0F
Copy CRC 1128EC0F
Copy OK

Track 3

Filename J:\Kurfitza\03 - Golden Rose (One Rainy Wish).wav

Pre-gap length 0:00:02.60

Peak level 99.4 %
Track quality 100.0 %
Test CRC FFA2D4E6
Copy CRC FFA2D4E6
Copy OK

Track 4

Filename J:\Kurfitza\04 - Ain't No Telling #1.wav

Pre-gap length 0:00:02.60

Peak level 99.9 %
Track quality 100.0 %
Test CRC 367B71F1
Copy CRC 367B71F1
Copy OK

Track 5

Filename J:\Kurfitza\05 - South Saturn Delta.wav

Pre-gap length 0:00:02.60

Peak level 79.4 %
Track quality 100.0 %
Test CRC 466DF0CE
Copy CRC 466DF0CE
Copy OK

Track 6

Filename J:\Kurfitza\06 - Little One #1.wav

Pre-gap length 0:00:02.60

Peak level 99.0 %
Track quality 100.0 %
Test CRC 1820DB4E
Copy CRC 1820DB4E
Copy OK

Track 7

Filename J:\Kurfitza\07 - Little One #2.wav

Pre-gap length 0:00:02.60

Peak level 96.6 %
Track quality 100.0 %
Test CRC D61A9957
Copy CRC D61A9957
Copy OK

Track 8

Filename J:\Kurfitza\08 - Castle Made Of Sand.wav

Pre-gap length 0:00:02.60

Peak level 87.0 %
Track quality 100.0 %
Test CRC 10DB889C
Copy CRC 10DB889C
Copy OK

Track 9

Filename J:\Kurfitza\09 - Ain't No Telling #2.wav

Pre-gap length 0:00:02.60

Peak level 94.6 %
Track quality 100.0 %
Test CRC 94CED2DF
Copy CRC 94CED2DF
Copy OK

Track 10

Filename J:\Kurfitza\10 - She's So Fine.wav

Pre-gap length 0:00:02.60

Peak level 84.5 %
Track quality 100.0 %
Test CRC 360BC76F
Copy CRC 360BC76F
Copy OK

Track 11

Filename J:\Kurfitza\11 - Up From The Skies.wav

Pre-gap length 0:00:02.60

Peak level 99.1 %
Track quality 100.0 %
Test CRC 4A174538
Copy CRC 4A174538
Copy OK

Track 12

Filename J:\Kurfitza\12 - Bold As Love.wav

Pre-gap length 0:00:02.60

Peak level 99.7 %
Track quality 100.0 %
Test CRC F7D3A575
Copy CRC F7D3A575
Copy OK

Track 13

Filename J:\Kurfitza\13 - Little Miss Lover.wav

Pre-gap length 0:00:02.60

Peak level 93.4 %
Track quality 100.0 %
Test CRC 7A650878
Copy CRC 7A650878
Copy OK

Track 14

Filename J:\Kurfitza\14 - Waterfall (May This Be Love).wav

Pre-gap length 0:00:02.60

Peak level 99.7 %
Track quality 100.0 %
Test CRC F09732C4
Copy CRC F09732C4
Copy OK

Track 15

Filename J:\Kurfitza\15 - Have You Ever Heard.wav

Pre-gap length 0:00:02.60

Peak level 100.0 %
Track quality 100.0 %
Test CRC BAAB3756
Copy CRC BAAB3756
Copy OK

Track 16

Filename J:\Kurfitza\16 - Dream.wav

Pre-gap length 0:00:02.60

Peak level 91.6 %
Track quality 100.0 %
Test CRC 165EEF5B
Copy CRC 165EEF5B
Copy OK

Track 17

Filename J:\Kurfitza\17 - Dance.wav

Pre-gap length 0:00:02.60

Peak level 92.7 %
Track quality 99.9 %
Test CRC 5B908D9A
Copy CRC 5B908D9A
Copy OK


No errors occured

End of status report

foobar2000 1.2 / Dynamic Range Meter 1.1.1
log date: 2016-07-08 21:59:25

––––––––––––––––––––––––––––––––––––––––
Analyzed: Jimi Hendrix / In The Studio Volume 1
––––––––––––––––––––––––––––––––––––––––

DR Peak RMS Duration Track
––––––––––––––––––––––––––––––––––––––––
DR12 0.00 dB -13.48 dB 3:29 01-Wait Until Tomorrow
DR11 -0.81 dB -13.99 dB 2:45 02-Spanish Castle Magic
DR11 -0.04 dB -14.16 dB 3:57 03-Golden Rose (One Rainy Wish)
DR11 -0.01 dB -12.95 dB 1:55 04-Ain't No Telling #1
DR11 -2.00 dB -15.17 dB 4:55 05-South Saturn Delta
DR10 -0.08 dB -12.13 dB 3:35 06-Little One #1
DR9 -0.30 dB -12.10 dB 3:37 07-Little One #2
DR11 -1.20 dB -15.85 dB 2:51 08-Castle Made Of Sand
DR11 -0.48 dB -14.12 dB 1:54 09-Ain't No Telling #2
DR10 -1.46 dB -13.37 dB 2:41 10-She's So Fine
DR11 -0.07 dB -13.19 dB 2:59 11-Up From The Skies
DR11 -0.03 dB -13.14 dB 3:30 12-Bold As Love
DR10 -0.59 dB -12.14 dB 2:17 13-Little Miss Lover
DR12 -0.02 dB -14.75 dB 3:14 14-Waterfall (May This Be Love)
DR11 0.00 dB -14.47 dB 3:48 15-Have You Ever Heard
DR9 -0.76 dB -11.83 dB 2:09 16-Dream
DR10 -0.65 dB -11.86 dB 1:57 17-Dance
––––––––––––––––––––––––––––––––––––––––

Number of tracks: 17
Official DR value: DR11

Samplerate: 44100 Hz
Channels: 2
Bits per sample: 16
Bitrate: 688 kbps
Codec: FLAC
================================================================================




Jimi Hendrix - In The Studio: Volumes 1-10 (2006) 10 CD Box Set [Re-Up]

Volume 2
EAC | FLAC | Tracks (Cue&Log) ~ 454 Mb (incl 5%) | Mp3 (CBR320) ~ 174 Mb (incl 5%) | Time: 01:09:54


Tracklist:

01. Valleys Of Neptune (05:39)
02. Lover Man (04:14)
03. Machine Gun (12:53)
04. Trying To Be (Stepping Stone) , Earth Blues (07:18)
05. Stepping Stone (04:17)
06. Untitled Guitar Improvisation (05:25)
07. Keep On Grooving (midnight Lightning) (12:00)
08. Come Down Hard On Me Baby (03:33)
09. Drifters Escape (03:10)
10. Belly Button Window (05:31)
11. Bolero (05:50)


Exact Audio Copy V0.99 prebeta 5 from 4. May 2009

EAC extraction logfile from 11. May 2011, 9:47

Jimi Hendrix / In The Studio Volume 2

Used drive : PLEXTOR CD-R PREMIUM2 Adapter: 4 ID: 0

Read mode : Secure
Utilize accurate stream : Yes
Defeat audio cache : Yes
Make use of C2 pointers : No

Read offset correction : 30
Overread into Lead-In and Lead-Out : Yes
Fill up missing offset samples with silence : Yes
Delete leading and trailing silent blocks : No
Null samples used in CRC calculations : Yes
Used interface : Native Win32 interface for Win NT & 2000
Gap handling : Appended to previous track

Used output format : User Defined Encoder
Selected bitrate : 1024 kBit/s
Quality : High
Add ID3 tag : No
Command line compressor : C:\Program Files (x86)\Exact Audio Copy\Flac\flac.exe
Additional command line options : -8 -V -T "ARTIST=%a" -T "TITLE=%t" -T "ALBUM=%g" -T "DATE=%y" -T "TRACKNUMBER=%n" -T "TOTALTRACKS=%x" -T "GENRE=%m" -T "ALBUMARTIST=%v" -T "ALBUM ARTIST=%v" -T "COMMENT=EAC Secure Mode, Test & Copy, AccurateRip, FLAC -8" %s


Track 1

Filename J:\Kurfitza\01 - Valleys Of Neptune.wav

Pre-gap length 0:00:02.00

Peak level 99.3 %
Track quality 100.0 %
Test CRC 62244D7C
Copy CRC 62244D7C
Copy OK

Track 2

Filename J:\Kurfitza\02 - Lover Man.wav

Pre-gap length 0:00:02.60

Peak level 93.2 %
Track quality 100.0 %
Test CRC A5A8FBA1
Copy CRC A5A8FBA1
Copy OK

Track 3

Filename J:\Kurfitza\03 - Machine Gun.wav

Pre-gap length 0:00:02.60

Peak level 100.0 %
Track quality 100.0 %
Test CRC 5A587F72
Copy CRC 5A587F72
Copy OK

Track 4

Filename J:\Kurfitza\04 - Trying To Be (Stepping Stone) , Earth Blues.wav

Pre-gap length 0:00:02.60

Peak level 94.3 %
Track quality 100.0 %
Test CRC 89D35115
Copy CRC 89D35115
Copy OK

Track 5

Filename J:\Kurfitza\05 - Stepping Stone.wav

Pre-gap length 0:00:02.60

Peak level 98.5 %
Track quality 100.0 %
Test CRC 15C6B595
Copy CRC 15C6B595
Copy OK

Track 6

Filename J:\Kurfitza\06 - Untitled Guitar Improvisation.wav

Pre-gap length 0:00:02.60

Peak level 97.2 %
Track quality 100.0 %
Test CRC 7B15E8F9
Copy CRC 7B15E8F9
Copy OK

Track 7

Filename J:\Kurfitza\07 - Keep On Grooving (midnight Lightning).wav

Pre-gap length 0:00:02.60

Peak level 97.2 %
Track quality 100.0 %
Test CRC 41B6D290
Copy CRC 41B6D290
Copy OK

Track 8

Filename J:\Kurfitza\08 - Come Down Hard On Me Baby.wav

Pre-gap length 0:00:02.60

Peak level 79.2 %
Track quality 100.0 %
Test CRC 8BE3642A
Copy CRC 8BE3642A
Copy OK

Track 9

Filename J:\Kurfitza\09 - Drifters Escape.wav

Pre-gap length 0:00:02.60

Peak level 97.0 %
Track quality 100.0 %
Test CRC 24C9F364
Copy CRC 24C9F364
Copy OK

Track 10

Filename J:\Kurfitza\10 - Belly Button Window.wav

Pre-gap length 0:00:02.60

Peak level 87.5 %
Track quality 100.0 %
Test CRC 944DA8FC
Copy CRC 944DA8FC
Copy OK

Track 11

Filename J:\Kurfitza\11 - Bolero.wav

Pre-gap length 0:00:02.60

Peak level 86.5 %
Track quality 100.0 %
Test CRC 78B9D168
Copy CRC 78B9D168
Copy OK


No errors occured

End of status report

foobar2000 1.2 / Dynamic Range Meter 1.1.1
log date: 2016-07-08 21:59:44

––––––––––––––––––––––––––––––––––––––––
Analyzed: Jimi Hendrix / In The Studio Volume 2
––––––––––––––––––––––––––––––––––––––––

DR Peak RMS Duration Track
––––––––––––––––––––––––––––––––––––––––
DR10 -0.06 dB -12.66 dB 5:39 01-Valleys Of Neptune
DR10 -0.61 dB -12.84 dB 4:14 02-Lover Man
DR10 0.00 dB -11.80 dB 12:53 03-Machine Gun
DR8 -0.51 dB -10.64 dB 7:19 04-Trying To Be (Stepping Stone) , Earth Blues
DR10 -0.12 dB -12.58 dB 4:17 05-Stepping Stone
DR10 -0.24 dB -12.80 dB 5:25 06-Untitled Guitar Improvisation
DR9 -0.24 dB -11.65 dB 12:00 07-Keep On Grooving (midnight Lightning)
DR9 -2.02 dB -12.31 dB 3:34 08-Come Down Hard On Me Baby
DR10 -0.26 dB -12.13 dB 3:10 09-Drifters Escape
DR10 -1.16 dB -12.75 dB 5:32 10-Belly Button Window
DR10 -1.25 dB -12.83 dB 5:50 11-Bolero
––––––––––––––––––––––––––––––––––––––––

Number of tracks: 11
Official DR value: DR10

Samplerate: 44100 Hz
Channels: 2
Bits per sample: 16
Bitrate: 809 kbps
Codec: FLAC
================================================================================




Jimi Hendrix - In The Studio: Volumes 1-10 (2006) 10 CD Box Set [Re-Up]

Volume 3
EAC | FLAC | Tracks (Cue&Log) ~ 488 Mb (incl 5%) | Mp3 (CBR320) ~ 193 Mb (incl 5%) | Time: 01:18:34


Tracklist:

01. Drifting (try out) (03:52)
02. Keep On Groovin' Drifting (try out) (00:56)
03. Midnight Lightnin' (try out) (00:24)
04. Freedom (alternate take) (04:04)
05. Cherokee Mist,In From The Storm (06:30)
06. Cherokee Mist,In From The Storm (04:36)
07. Lil Dog Of Mine,Heaven Has No Sorrow (session) (12:52)
08. Valleys Of Neptune (session) (21:16)
09. Improvisation,Drifting(try Out) (03:34)
10. Had To Cry Today (01:26)
11. Angel (intro instrumental #1) (00:25)
12. Angel (complete instrumental) (04:45)
13. Angel (intro instrumental #2) (00:33)
14. Drifting (alternate take) (03:42)
15. Angel (alternate version complete with vocals) (04:21)
16. Belly Button Window (instrumental) (05:12)


Exact Audio Copy V0.99 prebeta 5 from 4. May 2009

EAC extraction logfile from 14. May 2011, 11:17

Jimi Hendrix / In The Studio Volume 3

Used drive : PLEXTOR CD-R PREMIUM2 Adapter: 4 ID: 0

Read mode : Secure
Utilize accurate stream : Yes
Defeat audio cache : Yes
Make use of C2 pointers : No

Read offset correction : 30
Overread into Lead-In and Lead-Out : Yes
Fill up missing offset samples with silence : Yes
Delete leading and trailing silent blocks : No
Null samples used in CRC calculations : Yes
Used interface : Native Win32 interface for Win NT & 2000
Gap handling : Appended to previous track

Used output format : User Defined Encoder
Selected bitrate : 1024 kBit/s
Quality : High
Add ID3 tag : No
Command line compressor : C:\Program Files (x86)\Exact Audio Copy\Flac\flac.exe
Additional command line options : -8 -V -T "ARTIST=%a" -T "TITLE=%t" -T "ALBUM=%g" -T "DATE=%y" -T "TRACKNUMBER=%n" -T "TOTALTRACKS=%x" -T "GENRE=%m" -T "ALBUMARTIST=%v" -T "ALBUM ARTIST=%v" -T "COMMENT=EAC Secure Mode, Test & Copy, AccurateRip, FLAC -8" %s


Track 1

Filename J:\Kurfitza\01 - Drifting (try out).wav

Pre-gap length 0:00:02.00

Peak level 99.6 %
Track quality 100.0 %
Test CRC 2FBB7D9A
Copy CRC 2FBB7D9A
Copy OK

Track 2

Filename J:\Kurfitza\02 - Keep On Groovin' Drifting (try out).wav

Pre-gap length 0:00:01.77

Peak level 40.5 %
Track quality 100.0 %
Test CRC 7F97D7C6
Copy CRC 7F97D7C6
Copy OK

Track 3

Filename J:\Kurfitza\03 - Midnight Lightnin' (try out).wav

Pre-gap length 0:00:01.77

Peak level 88.1 %
Track quality 100.0 %
Test CRC 387AAA76
Copy CRC 387AAA76
Copy OK

Track 4

Filename J:\Kurfitza\04 - Freedom (alternate take).wav

Pre-gap length 0:00:01.77

Peak level 99.7 %
Track quality 100.0 %
Test CRC ED399096
Copy CRC ED399096
Copy OK

Track 5

Filename J:\Kurfitza\05 - Cherokee Mist,In From The Storm.wav

Pre-gap length 0:00:01.77

Peak level 99.7 %
Track quality 100.0 %
Test CRC 4BDA8F10
Copy CRC 4BDA8F10
Copy OK

Track 6

Filename J:\Kurfitza\06 - Cherokee Mist,In From The Storm.wav

Peak level 99.7 %
Track quality 100.0 %
Test CRC 8EDC0403
Copy CRC 8EDC0403
Copy OK

Track 7

Filename J:\Kurfitza\07 - Lil Dog Of Mine,Heaven Has No Sorrow (session).wav

Pre-gap length 0:00:01.77

Peak level 99.7 %
Track quality 100.0 %
Test CRC 37183D86
Copy CRC 37183D86
Copy OK

Track 8

Filename J:\Kurfitza\08 - Valleys Of Neptune (session).wav

Peak level 99.7 %
Track quality 100.0 %
Test CRC 00056064
Copy CRC 00056064
Copy OK

Track 9

Filename J:\Kurfitza\09 - Improvisation,Drifting(try Out).wav

Pre-gap length 0:00:01.77

Peak level 99.7 %
Track quality 100.0 %
Test CRC 4318D875
Copy CRC 4318D875
Copy OK

Track 10

Filename J:\Kurfitza\10 - Had To Cry Today.wav

Pre-gap length 0:00:01.77

Peak level 99.7 %
Track quality 100.0 %
Test CRC 27C6989E
Copy CRC 27C6989E
Copy OK

Track 11

Filename J:\Kurfitza\11 - Angel (intro instrumental #1).wav

Peak level 83.6 %
Track quality 100.0 %
Test CRC E854A1C8
Copy CRC E854A1C8
Copy OK

Track 12

Filename J:\Kurfitza\12 - Angel (complete instrumental).wav

Peak level 99.7 %
Track quality 100.0 %
Test CRC D6CE437F
Copy CRC D6CE437F
Copy OK

Track 13

Filename J:\Kurfitza\13 - Angel (intro instrumental #2).wav

Pre-gap length 0:00:01.77

Peak level 64.4 %
Track quality 100.0 %
Test CRC E6E24E43
Copy CRC E6E24E43
Copy OK

Track 14

Filename J:\Kurfitza\14 - Drifting (alternate take).wav

Pre-gap length 0:00:01.77

Peak level 99.7 %
Track quality 100.0 %
Test CRC B11C5CD0
Copy CRC B11C5CD0
Copy OK

Track 15

Filename J:\Kurfitza\15 - Angel (alternate version complete with vocals).wav

Pre-gap length 0:00:01.77

Peak level 99.7 %
Track quality 99.9 %
Test CRC 7ACAE23C
Copy CRC 7ACAE23C
Copy OK

Track 16

Filename J:\Kurfitza\16 - Belly Button Window (instrumental).wav

Pre-gap length 0:00:01.77

Peak level 99.7 %
Track quality 100.0 %
Test CRC 87F91C38
Copy CRC 87F91C38
Copy OK


No errors occured

End of status report

foobar2000 1.2 / Dynamic Range Meter 1.1.1
log date: 2016-07-08 22:00:05

––––––––––––––––––––––––––––––––––––––––
Analyzed: Jimi Hendrix / In The Studio Volume 3
––––––––––––––––––––––––––––––––––––––––

DR Peak RMS Duration Track
––––––––––––––––––––––––––––––––––––––––
DR11 -0.03 dB -15.24 dB 3:53 01-Drifting (try out)
DR11 -7.83 dB -23.69 dB 0:56 02-Keep On Groovin' Drifting (try out)
DR8 -1.09 dB -13.13 dB 0:24 03-Midnight Lightnin' (try out)
DR9 -0.02 dB -10.51 dB 4:05 04-Freedom (alternate take)
DR8 -0.02 dB -9.95 dB 6:30 05-Cherokee Mist,In From The Storm
DR8 -0.02 dB -9.59 dB 4:36 06-Cherokee Mist,In From The Storm
DR11 -0.02 dB -16.50 dB 12:53 07-Lil Dog Of Mine,Heaven Has No Sorrow (session)
DR10 -0.02 dB -14.14 dB 21:17 08-Valleys Of Neptune (session)
DR10 -0.02 dB -14.12 dB 3:35 09-Improvisation,Drifting(try Out)
DR12 -0.02 dB -14.29 dB 1:26 10-Had To Cry Today
DR12 -1.55 dB -18.28 dB 0:26 11-Angel (intro instrumental #1)
DR8 -0.02 dB -10.05 dB 4:45 12-Angel (complete instrumental)
DR14 -3.82 dB -21.24 dB 0:33 13-Angel (intro instrumental #2)
DR11 -0.03 dB -13.52 dB 3:42 14-Drifting (alternate take)
DR9 -0.02 dB -12.03 dB 4:21 15-Angel (alternate version complete with vocals)
DR13 -0.02 dB -15.11 dB 5:13 16-Belly Button Window (instrumental)
––––––––––––––––––––––––––––––––––––––––

Number of tracks: 16
Official DR value: DR10

Samplerate: 44100 Hz
Channels: 2
Bits per sample: 16
Bitrate: 926 kbps
Codec: FLAC
================================================================================




Jimi Hendrix - In The Studio: Volumes 1-10 (2006) 10 CD Box Set [Re-Up]

Volume 4
EAC | FLAC | Tracks (Cue&Log) ~ 384 Mb (incl 5%) | Mp3 (CBR320) ~ 144 Mb (incl 5%) | Time: 00:56:45


Tracklist:

01. Lover Man (02:52)
02. Message To Love (03:35)
03. Izabella (take 2) (03:50)
04. Bleeding Heart (blues in C sharp) (03:27)
05. Izabella (take 1) (04:41)
06. Blue Suede Shoes (11:36)
07. Power Of Soul (takes nos. 1 to 16) (26:42)


Exact Audio Copy V0.99 prebeta 5 from 4. May 2009

EAC extraction logfile from 14. May 2011, 21:45

Jimi Hendrix / In The Studio Volume 4

Used drive : PLEXTOR CD-R PREMIUM2 Adapter: 4 ID: 0

Read mode : Secure
Utilize accurate stream : Yes
Defeat audio cache : Yes
Make use of C2 pointers : No

Read offset correction : 30
Overread into Lead-In and Lead-Out : Yes
Fill up missing offset samples with silence : Yes
Delete leading and trailing silent blocks : No
Null samples used in CRC calculations : Yes
Used interface : Native Win32 interface for Win NT & 2000
Gap handling : Appended to previous track

Used output format : User Defined Encoder
Selected bitrate : 1024 kBit/s
Quality : High
Add ID3 tag : No
Command line compressor : C:\Program Files (x86)\Exact Audio Copy\Flac\flac.exe
Additional command line options : -8 -V -T "ARTIST=%a" -T "TITLE=%t" -T "ALBUM=%g" -T "DATE=%y" -T "TRACKNUMBER=%n" -T "TOTALTRACKS=%x" -T "GENRE=%m" -T "ALBUMARTIST=%v" -T "ALBUM ARTIST=%v" -T "COMMENT=EAC Secure Mode, Test & Copy, AccurateRip, FLAC -8" %s


Track 1

Filename J:\Kurfitza\01 - Lover Man.wav

Pre-gap length 0:00:02.00

Peak level 98.6 %
Track quality 100.0 %
Test CRC D80E3A27
Copy CRC D80E3A27
Copy OK

Track 2

Filename J:\Kurfitza\02 - Message To Love.wav

Pre-gap length 0:00:01.77

Peak level 98.6 %
Track quality 100.0 %
Test CRC 0071D06F
Copy CRC 0071D06F
Copy OK

Track 3

Filename J:\Kurfitza\03 - Izabella (take 2).wav

Pre-gap length 0:00:01.77

Peak level 98.8 %
Track quality 100.0 %
Test CRC 197ABE3F
Copy CRC 197ABE3F
Copy OK

Track 4

Filename J:\Kurfitza\04 - Bleeding Heart (blues in C sharp).wav

Pre-gap length 0:00:01.77

Peak level 98.5 %
Track quality 100.0 %
Test CRC D068FB62
Copy CRC D068FB62
Copy OK

Track 5

Filename J:\Kurfitza\05 - Izabella (take 1).wav

Pre-gap length 0:00:01.77

Peak level 98.8 %
Track quality 100.0 %
Test CRC B2BA8B4C
Copy CRC B2BA8B4C
Copy OK

Track 6

Filename J:\Kurfitza\06 - Blue Suede Shoes.wav

Pre-gap length 0:00:01.77

Peak level 98.8 %
Track quality 99.9 %
Test CRC B7370599
Copy CRC B7370599
Copy OK

Track 7

Filename J:\Kurfitza\07 - Power Of Soul (takes nos. 1 to 16).wav

Pre-gap length 0:00:01.77

Peak level 98.8 %
Track quality 100.0 %
Test CRC 7FC8CF4C
Copy CRC 7FC8CF4C
Copy OK


No errors occured

End of status report

foobar2000 1.2 / Dynamic Range Meter 1.1.1
log date: 2016-07-08 22:00:21

––––––––––––––––––––––––––––––––––––––––
Analyzed: Jimi Hendrix / In The Studio Volume 4
––––––––––––––––––––––––––––––––––––––––

DR Peak RMS Duration Track
––––––––––––––––––––––––––––––––––––––––
DR9 -0.12 dB -10.08 dB 2:53 01-Lover Man
DR9 -0.12 dB -10.38 dB 3:35 02-Message To Love
DR10 -0.10 dB -11.54 dB 3:51 03-Izabella (take 2)
DR9 -0.12 dB -10.68 dB 3:27 04-Bleeding Heart (blues in C sharp)
DR13 -0.10 dB -14.94 dB 4:41 05-Izabella (take 1)
DR9 -0.10 dB -10.36 dB 11:37 06-Blue Suede Shoes
DR12 -0.10 dB -15.65 dB 26:42 07-Power Of Soul (takes nos. 1 to 16)
––––––––––––––––––––––––––––––––––––––––

Number of tracks: 7
Official DR value: DR10

Samplerate: 44100 Hz
Channels: 2
Bits per sample: 16
Bitrate: 822 kbps
Codec: FLAC
================================================================================




Jimi Hendrix - In The Studio: Volumes 1-10 (2006) 10 CD Box Set [Re-Up]

Volume 5
EAC | FLAC | Tracks (Cue&Log) ~ 426 Mb (incl 5%) | Mp3 (CBR320) ~ 170 Mb (incl 5%) | Time: 01:08:35


Tracklist:

01. Bleeding Heart (03:50)
02. Rainy Day Dream Away (false start) (00:56)
03. Rainy Day Dream Away (practice session) (02:21)
04. Rainy Day Dream Away , Still Raining Still Dreaming (alternate mix) (10:23)
05. Send My Love To Linda , Live And Let Live (11:06)
06. Mannish Boy , I'm A Man (39:55)


Exact Audio Copy V0.99 prebeta 5 from 4. May 2009

EAC extraction logfile from 16. May 2011, 8:10

Jimi Hendrix / In The Studio Volume 5

Used drive : PLEXTOR CD-R PREMIUM2 Adapter: 4 ID: 0

Read mode : Secure
Utilize accurate stream : Yes
Defeat audio cache : Yes
Make use of C2 pointers : No

Read offset correction : 30
Overread into Lead-In and Lead-Out : Yes
Fill up missing offset samples with silence : Yes
Delete leading and trailing silent blocks : No
Null samples used in CRC calculations : Yes
Used interface : Native Win32 interface for Win NT & 2000
Gap handling : Appended to previous track

Used output format : User Defined Encoder
Selected bitrate : 1024 kBit/s
Quality : High
Add ID3 tag : No
Command line compressor : C:\Program Files (x86)\Exact Audio Copy\Flac\flac.exe
Additional command line options : -8 -V -T "ARTIST=%a" -T "TITLE=%t" -T "ALBUM=%g" -T "DATE=%y" -T "TRACKNUMBER=%n" -T "TOTALTRACKS=%x" -T "GENRE=%m" -T "ALBUMARTIST=%v" -T "ALBUM ARTIST=%v" -T "COMMENT=EAC Secure Mode, Test & Copy, AccurateRip, FLAC -8" %s



Track 1

Filename J:\Kurfitza\01 - Bleeding Heart.wav

Pre-gap length 0:00:02.00

Peak level 98.5 %
Track quality 100.0 %
Test CRC F7114667
Copy CRC F7114667
Copy OK

Track 2

Filename J:\Kurfitza\02 - Rainy Day Dream Away (false start).wav

Pre-gap length 0:00:01.77

Peak level 98.6 %
Track quality 100.0 %
Test CRC B834E7B8
Copy CRC B834E7B8
Copy OK

Track 3

Filename J:\Kurfitza\03 - Rainy Day Dream Away (practice session).wav

Pre-gap length 0:00:01.77

Peak level 98.7 %
Track quality 100.0 %
Test CRC 27EAA5A1
Copy CRC 27EAA5A1
Copy OK

Track 4

Filename J:\Kurfitza\04 - Rainy Day Dream Away , Still Raining Still Dreaming (alternate mix).wav

Pre-gap length 0:00:01.77

Peak level 98.7 %
Track quality 100.0 %
Test CRC 3AE2E9D5
Copy CRC 3AE2E9D5
Copy OK

Track 5

Filename J:\Kurfitza\05 - Send My Love To Linda , Live And Let Live.wav

Pre-gap length 0:00:01.77

Peak level 98.6 %
Track quality 100.0 %
Test CRC 6DB9C468
Copy CRC 6DB9C468
Copy OK

Track 6

Filename J:\Kurfitza\06 - Mannish Boy , I'm A Man.wav

Pre-gap length 0:00:01.77

Peak level 98.7 %
Track quality 100.0 %
Test CRC 305EBC80
Copy CRC 305EBC80
Copy OK


No errors occured

End of status report

foobar2000 1.2 / Dynamic Range Meter 1.1.1
log date: 2016-07-08 22:00:40

––––––––––––––––––––––––––––––––––––––––
Analyzed: Jimi Hendrix / In The Studio Volume 5
––––––––––––––––––––––––––––––––––––––––

DR Peak RMS Duration Track
––––––––––––––––––––––––––––––––––––––––
DR10 -0.12 dB -11.58 dB 3:51 01-Bleeding Heart
DR10 -0.12 dB -14.85 dB 0:57 02-Rainy Day Dream Away (false start)
DR10 -0.11 dB -12.52 dB 2:22 03-Rainy Day Dream Away (practice session)
DR7 -0.11 dB -10.38 dB 10:24 04-Rainy Day Dream Away , Still Raining Still Dreaming (alternate mix)
DR9 -0.12 dB -11.32 dB 11:07 05-Send My Love To Linda , Live And Let Live
DR10 -0.11 dB -13.08 dB 39:55 06-Mannish Boy , I'm A Man
––––––––––––––––––––––––––––––––––––––––

Number of tracks: 6
Official DR value: DR9

Samplerate: 44100 Hz
Channels: 2
Bits per sample: 16
Bitrate: 851 kbps
Codec: FLAC
================================================================================




Jimi Hendrix - In The Studio: Volumes 1-10 (2006) 10 CD Box Set [Re-Up]

Volume 6
EAC | FLAC | Tracks (Cue&Log) ~ 355 Mb (incl 5%) | Mp3 (CBR320) ~ 162 Mb (incl 5%) | Time: 01:02:14


Tracklist:

01. Cherokee Mist (07:09)
02. Jam H290 (01:33)
03. Voodoo Chile (36:43)
04. Ships Passing In The Night (02:40)
05. Calling All Devil's Children Jam (14:05)


Exact Audio Copy V0.99 prebeta 5 from 4. May 2009

EAC extraction logfile from 16. May 2011, 19:35

Jimi Hendrix / In The Studio Volume 6

Used drive : PLEXTOR CD-R PREMIUM2 Adapter: 4 ID: 0

Read mode : Secure
Utilize accurate stream : Yes
Defeat audio cache : Yes
Make use of C2 pointers : No

Read offset correction : 30
Overread into Lead-In and Lead-Out : Yes
Fill up missing offset samples with silence : Yes
Delete leading and trailing silent blocks : No
Null samples used in CRC calculations : Yes
Used interface : Native Win32 interface for Win NT & 2000
Gap handling : Appended to previous track

Used output format : User Defined Encoder
Selected bitrate : 1024 kBit/s
Quality : High
Add ID3 tag : No
Command line compressor : C:\Program Files (x86)\Exact Audio Copy\Flac\flac.exe
Additional command line options : -8 -V -T "ARTIST=%a" -T "TITLE=%t" -T "ALBUM=%g" -T "DATE=%y" -T "TRACKNUMBER=%n" -T "TOTALTRACKS=%x" -T "GENRE=%m" -T "ALBUMARTIST=%v" -T "ALBUM ARTIST=%v" -T "COMMENT=EAC Secure Mode, Test & Copy, AccurateRip, FLAC -8" %s


Track 1

Filename J:\Kurfitza\01 - Cherokee Mist.wav

Pre-gap length 0:00:02.00

Peak level 98.6 %
Track quality 99.9 %
Test CRC 44910C10
Copy CRC 44910C10
Copy OK

Track 2

Filename J:\Kurfitza\02 - Jam H290.wav

Pre-gap length 0:00:01.77

Peak level 70.0 %
Track quality 100.0 %
Test CRC CD6A110C
Copy CRC CD6A110C
Copy OK

Track 3

Filename J:\Kurfitza\03 - Voodoo Chile.wav

Pre-gap length 0:00:01.77

Peak level 98.8 %
Track quality 100.0 %
Test CRC 2AF9AED7
Copy CRC 2AF9AED7
Copy OK

Track 4

Filename J:\Kurfitza\04 - Ships Passing In The Night.wav

Pre-gap length 0:00:01.77

Peak level 81.4 %
Track quality 100.0 %
Test CRC 334CC835
Copy CRC 334CC835
Copy OK

Track 5

Filename J:\Kurfitza\05 - Calling All Devil's Children Jam.wav

Pre-gap length 0:00:01.77

Peak level 84.4 %
Track quality 100.0 %
Test CRC 1F5E2D52
Copy CRC 1F5E2D52
Copy OK


No errors occured

End of status report

foobar2000 1.2 / Dynamic Range Meter 1.1.1
log date: 2016-07-08 22:00:57

––––––––––––––––––––––––––––––––––––––––
Analyzed: Jimi Hendrix / In The Studio Volume 6
––––––––––––––––––––––––––––––––––––––––

DR Peak RMS Duration Track
––––––––––––––––––––––––––––––––––––––––
DR11 -0.12 dB -15.09 dB 7:10 01-Cherokee Mist
DR12 -3.10 dB -17.75 dB 1:34 02-Jam H290
DR12 -0.10 dB -15.47 dB 36:44 03-Voodoo Chile
DR11 -1.78 dB -16.18 dB 2:41 04-Ships Passing In The Night
DR10 -1.47 dB -15.97 dB 14:06 05-Calling All Devil's Children Jam
––––––––––––––––––––––––––––––––––––––––

Number of tracks: 5
Official DR value: DR11

Samplerate: 44100 Hz
Channels: 2
Bits per sample: 16
Bitrate: 686 kbps
Codec: FLAC
================================================================================




Jimi Hendrix - In The Studio: Volumes 1-10 (2006) 10 CD Box Set [Re-Up]

Volume 7
EAC | FLAC | Tracks (Cue&Log) ~ 396 Mb (incl 5%) | Mp3 (CBR320) ~ 171 Mb (incl 5%) | Time: 01:10:22


Tracklist:

01. Jam including Stepping Stone, Sending My Love To Linda, Freedom, Here Comes The Sun, (23:49)
02. Closer To The Truth (Room Full Of Mirrors recital) (22:06)
03. Jam Back At The House (05:46)
04. Midnight, Valleys Of Neptune Arising (14:53)
05. Pride Of Man (Bolero) (01:27)
06. Pride Of Man (Bolero) (02:19)


Exact Audio Copy V0.99 prebeta 5 from 4. May 2009

EAC extraction logfile from 19. May 2011, 11:56

Jimi Hendrix / In The Studio Volume 7

Used drive : PLEXTOR CD-R PREMIUM2 Adapter: 4 ID: 0

Read mode : Secure
Utilize accurate stream : Yes
Defeat audio cache : Yes
Make use of C2 pointers : No

Read offset correction : 30
Overread into Lead-In and Lead-Out : Yes
Fill up missing offset samples with silence : Yes
Delete leading and trailing silent blocks : No
Null samples used in CRC calculations : Yes
Used interface : Native Win32 interface for Win NT & 2000
Gap handling : Appended to previous track

Used output format : User Defined Encoder
Selected bitrate : 1024 kBit/s
Quality : High
Add ID3 tag : No
Command line compressor : C:\Program Files (x86)\Exact Audio Copy\Flac\flac.exe
Additional command line options : -8 -V -T "ARTIST=%a" -T "TITLE=%t" -T "ALBUM=%g" -T "DATE=%y" -T "TRACKNUMBER=%n" -T "TOTALTRACKS=%x" -T "GENRE=%m" -T "ALBUMARTIST=%v" -T "ALBUM ARTIST=%v" -T "COMMENT=EAC Secure Mode, Test & Copy, AccurateRip, FLAC -8" %s


Track 1

Filename J:\Kurfitza\01 - Jam including Stepping Stone, Sending My Love To Linda, Freedom, Here Comes The Sun,.wav

Pre-gap length 0:00:02.00

Peak level 99.4 %
Track quality 100.0 %
Test CRC 5C61FCC1
Copy CRC 5C61FCC1
Copy OK

Track 2

Filename J:\Kurfitza\02 - Closer To The Truth (Room Full Of Mirrors recital).wav

Pre-gap length 0:00:01.77

Peak level 99.4 %
Track quality 100.0 %
Test CRC C718486A
Copy CRC C718486A
Copy OK

Track 3

Filename J:\Kurfitza\03 - Jam Back At The House.wav

Pre-gap length 0:00:01.77

Peak level 91.1 %
Track quality 100.0 %
Test CRC B18F2E07
Copy CRC B18F2E07
Copy OK

Track 4

Filename J:\Kurfitza\04 - Midnight, Valleys Of Neptune Arising.wav

Pre-gap length 0:00:01.77

Peak level 77.9 %
Track quality 99.9 %
Test CRC 5547C5B1
Copy CRC 5547C5B1
Copy OK

Track 5

Filename J:\Kurfitza\05 - Pride Of Man (Bolero).wav

Pre-gap length 0:00:01.77

Peak level 70.9 %
Track quality 100.0 %
Test CRC 44B25A00
Copy CRC 44B25A00
Copy OK

Track 6

Filename J:\Kurfitza\06 - Pride Of Man (Bolero).wav

Pre-gap length 0:00:01.77

Peak level 62.7 %
Track quality 99.9 %
Test CRC 28CE3B12
Copy CRC 28CE3B12
Copy OK


No errors occured

End of status report

foobar2000 1.2 / Dynamic Range Meter 1.1.1
log date: 2016-07-08 22:01:16

––––––––––––––––––––––––––––––––––––––––
Analyzed: Jimi Hendrix / In The Studio Volume 7
––––––––––––––––––––––––––––––––––––––––

DR Peak RMS Duration Track
––––––––––––––––––––––––––––––––––––––––
DR15 -0.05 dB -20.36 dB 23:49 01-Jam including Stepping Stone, Sending My Love To Linda, Freedom, Here Comes The Sun,
DR12 -0.05 dB -16.49 dB 22:06 02-Closer To The Truth (Room Full Of Mirrors recital)
DR12 -0.80 dB -14.90 dB 5:47 03-Jam Back At The House
DR10 -2.16 dB -14.86 dB 14:54 04-Midnight, Valleys Of Neptune Arising
DR10 -2.98 dB -15.05 dB 1:28 05-Pride Of Man (Bolero)
DR9 -4.05 dB -14.95 dB 2:19 06-Pride Of Man (Bolero)
––––––––––––––––––––––––––––––––––––––––

Number of tracks: 6
Official DR value: DR11

Samplerate: 44100 Hz
Channels: 2
Bits per sample: 16
Bitrate: 688 kbps
Codec: FLAC
================================================================================




Jimi Hendrix - In The Studio: Volumes 1-10 (2006) 10 CD Box Set [Re-Up]

Volume 8
EAC | FLAC | Tracks (Cue&Log) ~ 418 Mb (incl 5%) | Mp3 (CBR320) ~ 159 Mb (incl 5%) | Time: 01:02:47


Tracklist:

01. Electric Church (07:27)
02. Hear My Freedom (16:30)
03. Honey Bed (07:52)
04. Room Full Of Mirrors (02:32)
05. All Along The Watchtower (04:00)
06. Ezy Rider (04:22)
07. Dolly Dagger (04:04)
08. South Saturn Delta (05:43)
09. Shame Shame Shame (01:57)
10. Gypsy Blood (Crying Blue Rain) (02:39)
11. Sunshine Of Your Love (05:36)


Exact Audio Copy V0.99 prebeta 5 from 4. May 2009

EAC extraction logfile from 20. May 2011, 15:16

Jimi Hendrix / In The Studio Volume 8

Used drive : PLEXTOR CD-R PREMIUM2 Adapter: 4 ID: 0

Read mode : Secure
Utilize accurate stream : Yes
Defeat audio cache : Yes
Make use of C2 pointers : No

Read offset correction : 30
Overread into Lead-In and Lead-Out : Yes
Fill up missing offset samples with silence : Yes
Delete leading and trailing silent blocks : No
Null samples used in CRC calculations : Yes
Used interface : Native Win32 interface for Win NT & 2000
Gap handling : Appended to previous track

Used output format : User Defined Encoder
Selected bitrate : 1024 kBit/s
Quality : High
Add ID3 tag : No
Command line compressor : C:\Program Files (x86)\Exact Audio Copy\Flac\flac.exe
Additional command line options : -8 -V -T "ARTIST=%a" -T "TITLE=%t" -T "ALBUM=%g" -T "DATE=%y" -T "TRACKNUMBER=%n" -T "TOTALTRACKS=%x" -T "GENRE=%m" -T "ALBUMARTIST=%v" -T "ALBUM ARTIST=%v" -T "COMMENT=EAC Secure Mode, Test & Copy, AccurateRip, FLAC -8" %s


Track 1

Filename J:\Kurfitza\01 - Electric Church.wav

Pre-gap length 0:00:02.00

Peak level 96.5 %
Track quality 100.0 %
Test CRC 825C5E6F
Copy CRC 825C5E6F
Copy OK

Track 2

Filename J:\Kurfitza\02 - Hear My Freedom.wav

Pre-gap length 0:00:01.77

Peak level 99.4 %
Track quality 100.0 %
Test CRC CB2601EE
Copy CRC CB2601EE
Copy OK

Track 3

Filename J:\Kurfitza\03 - Honey Bed.wav

Pre-gap length 0:00:01.77

Peak level 99.4 %
Track quality 100.0 %
Test CRC ED689EF3
Copy CRC ED689EF3
Copy OK

Track 4

Filename J:\Kurfitza\04 - Room Full Of Mirrors.wav

Pre-gap length 0:00:01.77

Peak level 99.4 %
Track quality 100.0 %
Test CRC 394738DA
Copy CRC 394738DA
Copy OK

Track 5

Filename J:\Kurfitza\05 - All Along The Watchtower.wav

Pre-gap length 0:00:01.77

Peak level 99.4 %
Track quality 100.0 %
Test CRC 03096645
Copy CRC 03096645
Copy OK

Track 6

Filename J:\Kurfitza\06 - Ezy Rider.wav

Pre-gap length 0:00:01.77

Peak level 99.4 %
Track quality 100.0 %
Test CRC 6C8AC14D
Copy CRC 6C8AC14D
Copy OK

Track 7

Filename J:\Kurfitza\07 - Dolly Dagger.wav

Pre-gap length 0:00:01.77

Peak level 99.4 %
Track quality 100.0 %
Test CRC C38970A8
Copy CRC C38970A8
Copy OK

Track 8

Filename J:\Kurfitza\08 - South Saturn Delta.wav

Pre-gap length 0:00:01.77

Peak level 99.4 %
Track quality 99.9 %
Test CRC 3782CA97
Copy CRC 3782CA97
Copy OK

Track 9

Filename J:\Kurfitza\09 - Shame Shame Shame.wav

Pre-gap length 0:00:01.77

Peak level 99.4 %
Track quality 100.0 %
Test CRC E27CCF4B
Copy CRC E27CCF4B
Copy OK

Track 10

Filename J:\Kurfitza\10 - Gypsy Blood (Crying Blue Rain).wav

Pre-gap length 0:00:01.77

Peak level 99.4 %
Track quality 99.9 %
Test CRC B20DC020
Copy CRC B20DC020
Copy OK

Track 11

Filename J:\Kurfitza\11 - Sunshine Of Your Love.wav

Pre-gap length 0:00:01.77

Peak level 99.4 %
Track quality 100.0 %
Test CRC CD356857
Copy CRC CD356857
Copy OK


No errors occured

End of status report

foobar2000 1.2 / Dynamic Range Meter 1.1.1
log date: 2016-07-08 22:01:34

––––––––––––––––––––––––––––––––––––––––
Analyzed: Jimi Hendrix / In The Studio Volume 8
––––––––––––––––––––––––––––––––––––––––

DR Peak RMS Duration Track
––––––––––––––––––––––––––––––––––––––––
DR8 -0.31 dB -11.29 dB 7:28 01-Electric Church
DR11 -0.05 dB -14.46 dB 16:30 02-Hear My Freedom
DR9 -0.05 dB -11.30 dB 7:53 03-Honey Bed
DR9 -0.05 dB -11.32 dB 2:33 04-Room Full Of Mirrors
DR8 -0.05 dB -10.85 dB 4:00 05-All Along The Watchtower
DR9 -0.05 dB -10.81 dB 4:23 06-Ezy Rider
DR9 -0.05 dB -10.88 dB 4:04 07-Dolly Dagger
DR9 -0.05 dB -11.21 dB 5:44 08-South Saturn Delta
DR9 -0.05 dB -11.04 dB 1:57 09-Shame Shame Shame
DR8 -0.05 dB -10.86 dB 2:39 10-Gypsy Blood (Crying Blue Rain)
DR9 -0.05 dB -10.82 dB 5:36 11-Sunshine Of Your Love
––––––––––––––––––––––––––––––––––––––––

Number of tracks: 11
Official DR value: DR9

Samplerate: 44100 Hz
Channels: 2
Bits per sample: 16
Bitrate: 894 kbps
Codec: FLAC
================================================================================




Jimi Hendrix - In The Studio: Volumes 1-10 (2006) 10 CD Box Set [Re-Up]

Volume 9
EAC | FLAC | Tracks (Cue&Log) ~ 330 Mb (incl 5%) | Mp3 (CBR320) ~ 166 Mb (incl 5%) | Time: 01:04:43


Tracklist:

01. Angel (03:21)
02. 1983 (A Merman I Should Turn To Be) (08:12)
03. Astro Man,Valleys Of Neptune (03:22)
04. Gypsy Eyes (02:39)
05. Cherokee Mist (03:14)
06. Cherokee Mist,Gypsy Eyes (12:14)
07. Power Of Soul (07:11)
08. Long Hot Summer (02:14)
09. Long Hot Summer (01:51)
10. Hear My Train A Comin' (01:16)
11. Hear My Train A Comin' (01:10)
12. Gypsy Eyes (3rd take) (03:30)
13. Gypsy Eyes (riff) (00:45)
14. South Saturn Delta (03:40)
15. South Saturn Delta (02:17)
16. 1983 (A Merman I Should Turn To Be - instrumental) (04:29)
17. Acoustic Jam (03:08)


Exact Audio Copy V0.99 prebeta 5 from 4. May 2009

EAC extraction logfile from 23. May 2011, 18:24

Jimi Hendrix / In The Studio Volume 9

Used drive : PLEXTOR CD-R PREMIUM2 Adapter: 4 ID: 0

Read mode : Secure
Utilize accurate stream : Yes
Defeat audio cache : Yes
Make use of C2 pointers : No

Read offset correction : 30
Overread into Lead-In and Lead-Out : Yes
Fill up missing offset samples with silence : Yes
Delete leading and trailing silent blocks : No
Null samples used in CRC calculations : Yes
Used interface : Native Win32 interface for Win NT & 2000
Gap handling : Appended to previous track

Used output format : User Defined Encoder
Selected bitrate : 1024 kBit/s
Quality : High
Add ID3 tag : No
Command line compressor : C:\Program Files (x86)\Exact Audio Copy\Flac\flac.exe
Additional command line options : -8 -V -T "ARTIST=%a" -T "TITLE=%t" -T "ALBUM=%g" -T "DATE=%y" -T "TRACKNUMBER=%n" -T "TOTALTRACKS=%x" -T "GENRE=%m" -T "ALBUMARTIST=%v" -T "ALBUM ARTIST=%v" -T "COMMENT=EAC Secure Mode, Test & Copy, AccurateRip, FLAC -8" %s


Track 1

Filename J:\Kurfitza\01 - Angel.wav

Pre-gap length 0:00:02.00

Peak level 92.1 %
Track quality 100.0 %
Test CRC C6C3E65A
Copy CRC C6C3E65A
Copy OK

Track 2

Filename J:\Kurfitza\02 - 1983 (A Merman I Should Turn To Be).wav

Pre-gap length 0:00:01.77

Peak level 88.1 %
Track quality 100.0 %
Test CRC A96F62FD
Copy CRC A96F62FD
Copy OK

Track 3

Filename J:\Kurfitza\03 - Astro Man,Valleys Of Neptune.wav

Pre-gap length 0:00:01.77

Peak level 100.0 %
Track quality 100.0 %
Test CRC 3DF0A1BF
Copy CRC 3DF0A1BF
Copy OK

Track 4

Filename J:\Kurfitza\04 - Gypsy Eyes.wav

Pre-gap length 0:00:01.77

Peak level 100.0 %
Track quality 100.0 %
Test CRC D511B693
Copy CRC D511B693
Copy OK

Track 5

Filename J:\Kurfitza\05 - Cherokee Mist.wav

Pre-gap length 0:00:01.77

Peak level 97.6 %
Track quality 100.0 %
Test CRC ED9D4C42
Copy CRC ED9D4C42
Copy OK

Track 6

Filename J:\Kurfitza\06 - Cherokee Mist,Gypsy Eyes.wav

Pre-gap length 0:00:01.77

Peak level 91.3 %
Track quality 100.0 %
Test CRC 9FE5CAE0
Copy CRC 9FE5CAE0
Copy OK

Track 7

Filename J:\Kurfitza\07 - Power Of Soul.wav

Pre-gap length 0:00:01.77

Peak level 97.6 %
Track quality 100.0 %
Test CRC F60AC186
Copy CRC F60AC186
Copy OK

Track 8

Filename J:\Kurfitza\08 - Long Hot Summer.wav

Pre-gap length 0:00:01.77

Peak level 98.9 %
Track quality 99.9 %
Test CRC 9F01B2EF
Copy CRC 9F01B2EF
Copy OK

Track 9

Filename J:\Kurfitza\09 - Long Hot Summer.wav

Pre-gap length 0:00:01.77

Peak level 88.2 %
Track quality 100.0 %
Test CRC 38E0C3E2
Copy CRC 38E0C3E2
Copy OK

Track 10

Filename J:\Kurfitza\10 - Hear My Train A Comin'.wav

Pre-gap length 0:00:01.77

Peak level 100.0 %
Track quality 100.0 %
Test CRC FA8DE13E
Copy CRC FA8DE13E
Copy OK

Track 11

Filename J:\Kurfitza\11 - Hear My Train A Comin'.wav

Pre-gap length 0:00:01.77

Peak level 100.0 %
Track quality 99.8 %
Test CRC 083C3D59
Copy CRC 083C3D59
Copy OK

Track 12

Filename J:\Kurfitza\12 - Gypsy Eyes (3rd take).wav

Pre-gap length 0:00:01.77

Peak level 100.0 %
Track quality 99.9 %
Test CRC 32B08095
Copy CRC 32B08095
Copy OK

Track 13

Filename J:\Kurfitza\13 - Gypsy Eyes (riff).wav

Pre-gap length 0:00:01.77

Peak level 100.0 %
Track quality 100.0 %
Test CRC AB53E577
Copy CRC AB53E577
Copy OK

Track 14

Filename J:\Kurfitza\14 - South Saturn Delta.wav

Pre-gap length 0:00:01.77

Peak level 100.0 %
Track quality 100.0 %
Test CRC 17BF188F
Copy CRC 17BF188F
Copy OK

Track 15

Filename J:\Kurfitza\15 - South Saturn Delta.wav

Pre-gap length 0:00:01.77

Peak level 100.0 %
Track quality 100.0 %
Test CRC 3D9EB4EE
Copy CRC 3D9EB4EE
Copy OK

Track 16

Filename J:\Kurfitza\16 - 1983(A Merman I Should Turn To Be - instrumental).wav

Pre-gap length 0:00:01.77

Peak level 100.0 %
Track quality 100.0 %
Test CRC 4E7966BC
Copy CRC 4E7966BC
Copy OK

Track 17

Filename J:\Kurfitza\17 - Acoustic Jam.wav

Pre-gap length 0:00:01.77

Peak level 100.0 %
Track quality 100.0 %
Test CRC 6A3172C2
Copy CRC 6A3172C2
Copy OK


No errors occured

End of status report

foobar2000 1.2 / Dynamic Range Meter 1.1.1
log date: 2016-07-08 22:01:51

––––––––––––––––––––––––––––––––––––––––
Analyzed: Jimi Hendrix / In The Studio Volume 9
––––––––––––––––––––––––––––––––––––––––

DR Peak RMS Duration Track
––––––––––––––––––––––––––––––––––––––––
DR9 -0.71 dB -11.81 dB 3:21 01-Angel
DR9 -1.10 dB -11.76 dB 8:12 02-1983 (A Merman I Should Turn To Be)
DR10 0.00 dB -11.76 dB 3:23 03-Astro Man,Valleys Of Neptune
DR10 0.00 dB -11.87 dB 2:40 04-Gypsy Eyes
DR9 -0.21 dB -11.77 dB 3:15 05-Cherokee Mist
DR9 -0.78 dB -11.76 dB 12:14 06-Cherokee Mist,Gypsy Eyes
DR10 -0.21 dB -11.71 dB 7:12 07-Power Of Soul
DR10 -0.09 dB -13.36 dB 2:14 08-Long Hot Summer
DR9 -1.09 dB -13.46 dB 1:52 09-Long Hot Summer
DR9 0.00 dB -13.51 dB 1:17 10-Hear My Train A Comin'
DR9 0.00 dB -13.54 dB 1:11 11-Hear My Train A Comin'
DR10 0.00 dB -13.36 dB 3:30 12-Gypsy Eyes (3rd take)
DR9 0.00 dB -12.08 dB 0:46 13-Gypsy Eyes (riff)
DR11 0.00 dB -13.38 dB 3:41 14-South Saturn Delta
DR12 0.00 dB -13.38 dB 2:18 15-South Saturn Delta
DR9 0.00 dB -11.79 dB 4:29 16-1983 (A Merman I Should Turn To Be - instrumental)
DR13 0.00 dB -15.56 dB 3:09 17-Acoustic Jam
––––––––––––––––––––––––––––––––––––––––

Number of tracks: 17
Official DR value: DR10

Samplerate: 44100 Hz
Channels: 2
Bits per sample: 16
Bitrate: 718 kbps
Codec: FLAC
================================================================================




Jimi Hendrix - In The Studio: Volumes 1-10 (2006) 10 CD Box Set [Re-Up]

Volume 10
EAC | FLAC | Tracks (Cue&Log) ~ 470 Mb (incl 5%) | Mp3 (CBR320) ~ 187 Mb (incl 5%) | Time: 01:15:00


Tracklist:

01. Hey Joe (03:08)
02. Purple Haze (03:01)
03. Red House (11:01)
04. Crosstown Traffic (02:27)
05. Takin Care Of Business (04:03)
06. I Don't Live Today (11:02)
07. Wind Cries Mary (03:32)
08. One Rainy Wish (alternate mix) (03:57)
09. La Poupee Qui Fait Non (03:03)
10. 51st Anniversary (03:19)
11. 51st Anniversary (04:56)
12. Can You See Me (08:44)
13. Can You See Me (02:34)
14. Fire (02:34)
15. Fire (07:35)


Exact Audio Copy V0.99 prebeta 5 from 4. May 2009

EAC extraction logfile from 26. May 2011, 17:22

Jimi Hendrix / In The Studio Volume 10

Used drive : PLEXTOR CD-R PREMIUM2 Adapter: 4 ID: 0

Read mode : Secure
Utilize accurate stream : Yes
Defeat audio cache : Yes
Make use of C2 pointers : No

Read offset correction : 30
Overread into Lead-In and Lead-Out : Yes
Fill up missing offset samples with silence : Yes
Delete leading and trailing silent blocks : No
Null samples used in CRC calculations : Yes
Used interface : Native Win32 interface for Win NT & 2000
Gap handling : Appended to previous track

Used output format : User Defined Encoder
Selected bitrate : 1024 kBit/s
Quality : High
Add ID3 tag : No
Command line compressor : C:\Program Files (x86)\Exact Audio Copy\Flac\flac.exe
Additional command line options : -8 -V -T "ARTIST=%a" -T "TITLE=%t" -T "ALBUM=%g" -T "DATE=%y" -T "TRACKNUMBER=%n" -T "TOTALTRACKS=%x" -T "GENRE=%m" -T "ALBUMARTIST=%v" -T "ALBUM ARTIST=%v" -T "COMMENT=EAC Secure Mode, Test & Copy, AccurateRip, FLAC -8" %s


Track 1

Filename J:\Kurfitza\01 - Hey Joe.wav

Pre-gap length 0:00:02.00

Peak level 79.4 %
Track quality 99.9 %
Test CRC BCDE0D0A
Copy CRC BCDE0D0A
Copy OK

Track 2

Filename J:\Kurfitza\02 - Purple Haze.wav

Pre-gap length 0:00:01.77

Peak level 99.4 %
Track quality 100.0 %
Test CRC 26A0B382
Copy CRC 26A0B382
Copy OK

Track 3

Filename J:\Kurfitza\03 - Red House.wav

Pre-gap length 0:00:01.77

Peak level 99.4 %
Track quality 99.9 %
Test CRC 5BFE4BF4
Copy CRC 5BFE4BF4
Copy OK

Track 4

Filename J:\Kurfitza\04 - Crosstown Traffic.wav

Pre-gap length 0:00:01.77

Peak level 95.1 %
Track quality 100.0 %
Test CRC F6300766
Copy CRC F6300766
Copy OK

Track 5

Filename J:\Kurfitza\05 - Takin Care Of Business.wav

Pre-gap length 0:00:01.77

Peak level 99.4 %
Track quality 99.9 %
Test CRC D28BE8F4
Copy CRC D28BE8F4
Copy OK

Track 6

Filename J:\Kurfitza\06 - I Don't Live Today.wav

Pre-gap length 0:00:01.77

Peak level 99.4 %
Track quality 100.0 %
Test CRC 824799AD
Copy CRC 824799AD
Copy OK

Track 7

Filename J:\Kurfitza\07 - Wind Cries Mary.wav

Pre-gap length 0:00:01.77

Peak level 97.3 %
Track quality 100.0 %
Test CRC F919B88B
Copy CRC F919B88B
Copy OK

Track 8

Filename J:\Kurfitza\08 - One Rainy Wish (alternate mix).wav

Pre-gap length 0:00:01.77

Peak level 99.4 %
Track quality 100.0 %
Test CRC 1872C118
Copy CRC 1872C118
Copy OK

Track 9

Filename J:\Kurfitza\09 - La Poupee Qui Fait Non.wav

Pre-gap length 0:00:01.77

Peak level 99.4 %
Track quality 100.0 %
Test CRC 51627E71
Copy CRC 51627E71
Copy OK

Track 10

Filename J:\Kurfitza\10 - 51st Anniversary.wav

Pre-gap length 0:00:01.77

Peak level 99.4 %
Track quality 100.0 %
Test CRC 56B89F61
Copy CRC 56B89F61
Copy OK

Track 11

Filename J:\Kurfitza\11 - 51st Anniversary.wav

Pre-gap length 0:00:01.77

Peak level 99.4 %
Track quality 100.0 %
Test CRC 213FA605
Copy CRC 213FA605
Copy OK

Track 12

Filename J:\Kurfitza\12 - Can You See Me.wav

Pre-gap length 0:00:01.77

Peak level 99.4 %
Track quality 100.0 %
Test CRC 4D892E44
Copy CRC 4D892E44
Copy OK

Track 13

Filename J:\Kurfitza\13 - Can You See Me.wav

Pre-gap length 0:00:01.77

Peak level 99.4 %
Track quality 99.9 %
Test CRC E37C0620
Copy CRC E37C0620
Copy OK

Track 14

Filename J:\Kurfitza\14 - Fire.wav

Pre-gap length 0:00:01.77

Peak level 99.4 %
Track quality 99.9 %
Test CRC DB2B25A9
Copy CRC DB2B25A9
Copy OK

Track 15

Filename J:\Kurfitza\15 - Fire.wav

Pre-gap length 0:00:01.77

Peak level 99.4 %
Track quality 100.0 %
Test CRC 525D23E7
Copy CRC 525D23E7
Copy OK


No errors occured

End of status report

foobar2000 1.2 / Dynamic Range Meter 1.1.1
log date: 2016-07-08 22:02:11

––––––––––––––––––––––––––––––––––––––––
Analyzed: Jimi Hendrix / In The Studio Volume 10
––––––––––––––––––––––––––––––––––––––––

DR Peak RMS Duration Track
––––––––––––––––––––––––––––––––––––––––
DR9 -2.00 dB -12.83 dB 3:08 01-Hey Joe
DR8 -0.05 dB -10.61 dB 3:02 02-Purple Haze
DR8 -0.05 dB -10.51 dB 11:01 03-Red House
DR9 -0.43 dB -12.75 dB 2:27 04-Crosstown Traffic
DR10 -0.05 dB -12.82 dB 4:03 05-Takin Care Of Business
DR8 -0.05 dB -10.48 dB 11:02 06-I Don't Live Today
DR10 -0.24 dB -12.79 dB 3:33 07-Wind Cries Mary
DR9 -0.05 dB -10.46 dB 3:57 08-One Rainy Wish (alternate mix)
DR11 -0.05 dB -12.90 dB 3:03 09-La Poupee Qui Fait Non
DR10 -0.05 dB -12.93 dB 3:19 10-51st Anniversary
DR11 -0.05 dB -12.73 dB 4:56 11-51st Anniversary
DR11 -0.05 dB -12.85 dB 8:44 12-Can You See Me
DR11 -0.05 dB -12.80 dB 2:34 13-Can You See Me
DR9 -0.05 dB -10.46 dB 2:34 14-Fire
DR9 -0.05 dB -12.85 dB 7:36 15-Fire
––––––––––––––––––––––––––––––––––––––––

Number of tracks: 15
Official DR value: DR10

Samplerate: 44100 Hz
Channels: 2
Bits per sample: 16
Bitrate: 781 kbps
Codec: FLAC
================================================================================




Jimi Hendrix - In The Studio: Volumes 1-10 (2006) 10 CD Box Set [Re-Up]