Subcategories

Jimi Hendrix - Kiss The Sky (1984)

Posted By: v3122
Jimi Hendrix - Kiss The Sky (1984)

Jimi Hendrix - Kiss The Sky (1984)
EAC | Flac(Image) + Cue + Log & MP3 CBR 320Kbps
1989 | Polydor KK, P20P 22017 | Japan | ~ 290 or 116 Mb | Scans Included
Blues Rock / Psychedelic Rock

At the start of the 1980s, it dawned on somebody in charge of Jimi Hendrix's musical legacy that a whole generation of new listeners had come of age since the guitarist's demise. That meant it was time for a fresh raid on the vaults and a fresh, authorized album release to fly the flag of the Hendrix estate, amid the steady stream of bootleg, gray market, and other unauthorized collections of his early work starting to fill up record store bins and browsers. Kiss the Sky did not just resurrect and recycle old familiar recordings, but included a pair of tracks that were new to most listeners and had a lot of meaning for serious fans. The album walked a fine line, emphasizing the more challenging side of Hendrix's work without ignoring some key elements of his mass appeal. The first side was the more daring, forcing the neophyte listener to plunge headfirst into tracks such as "Are You Experienced?" and "Voodoo Chile (Slight Return)." The radio-friendly "Purple Haze" and "All Along the Watchtower" didn't show up until the second side of the original LP, while the rest represented some of his more far-out excursions. The latter fit in perfectly with what new listeners had likely heard and seen of him (mostly the clip of "The Star Spangled Banner" from Woodstock). Actually, the resulting album is surprisingly strong, even getting in enough material based on traditional blues – embodied most notably in the previously unissued live rendition of Howlin' Wolf's "Killing Floor" from the Monterey Pop Festival – so that most of the major facets of his work were touched upon. And "Killing Floor" and the unedited version of "Red House" also made this an essential acquisition for veteran fans. Heard 25 years on, the CD edition has held up amazingly well, despite the numerous compilations that have supplanted this release. The audio quality is still impressive, and the music speaks for itself, very boldly.

by Bruce Eder, allmusic
Jimi Hendrix - Kiss The Sky (1984)


Jimi Hendrix - Kiss The Sky (1984):

Jimi Hendrix - Kiss The Sky (1984)

Tracklist:

01. Are You Experienced? [04:15]
02. I Don't Live Today [06:43]
03. Voodoo Child (Slight Return) [05:14]
04. Stepping Stone [04:08]
05. Castles Made Of Sand [02:49]
06. Killing Floor [03:32]
07. Purple Haze [02:53]
08. Red House [03:55]
09. Crosstown Traffic [02:18]
10. Third Stone From The Sun [06:46]
11. All Along The Watchtower [03:58]

Exact Audio Copy V0.99 prebeta 5 from 4. May 2009

EAC extraction logfile from 6. May 2013, 21:27

JIMI HENDRIX / Kiss The Sky

Used drive : ASUS DRW-24B3ST Adapter: 4 ID: 0

Read mode : Secure
Utilize accurate stream : Yes
Defeat audio cache : Yes
Make use of C2 pointers : No

Read offset correction : 6
Overread into Lead-In and Lead-Out : No
Fill up missing offset samples with silence : Yes
Delete leading and trailing silent blocks : No
Null samples used in CRC calculations : Yes
Used interface : Native Win32 interface for Win NT & 2000

Used output format : User Defined Encoder
Selected bitrate : 1024 kBit/s
Quality : High
Add ID3 tag : No
Command line compressor : C:\Program Files (x86)\EAC\WV\wavpack.exe
Additional command line options : -h -hh -m %s %d


TOC of the extracted CD

Track | Start | Length | Start sector | End sector
––––––––––––––––––––––––––––-
1 | 0:00.37 | 4:15.08 | 37 | 19169
2 | 4:15.45 | 6:43.72 | 19170 | 49466
3 | 10:59.42 | 5:14.38 | 49467 | 73054
4 | 16:14.05 | 4:08.57 | 73055 | 91711
5 | 20:22.62 | 2:49.08 | 91712 | 104394
6 | 23:11.70 | 3:32.10 | 104395 | 120304
7 | 26:44.05 | 2:53.20 | 120305 | 133299
8 | 29:37.25 | 3:55.07 | 133300 | 150931
9 | 33:32.32 | 2:18.68 | 150932 | 161349
10 | 35:51.25 | 6:46.17 | 161350 | 191816
11 | 42:37.42 | 3:58.40 | 191817 | 209706


Range status and errors

Selected range

Filename S:\JIMI HENDRIX\1984- Kiss The Sky (JP 1989 Polydor KK • P20P 22017)\JIMI HENDRIX - Kiss The Sky.wav

Peak level 79.4 %
Range quality 100.0 %
Test CRC F1A881E5
Copy CRC F1A881E5
Copy OK

No errors occurred


AccurateRip summary

Track 1 not present in database
Track 2 not present in database
Track 3 not present in database
Track 4 not present in database
Track 5 not present in database
Track 6 not present in database
Track 7 not present in database
Track 8 not present in database
Track 9 not present in database
Track 10 not present in database
Track 11 not present in database

None of the tracks are present in the AccurateRip database

End of status report

foobar2000 1.2.9 / Dynamic Range Meter 1.1.1
log date: 2017-04-03 13:28:14

––––––––––––––––––––––––––––––––––––––––
Analyzed: JIMI HENDRIX / Kiss The Sky
––––––––––––––––––––––––––––––––––––––––

DR Peak RMS Duration Track
––––––––––––––––––––––––––––––––––––––––
DR11 -2.22 dB -15.04 dB 4:15 01-Are You Experienced?
DR11 -2.58 dB -15.29 dB 6:44 02-I Don't Live Today
DR11 -2.32 dB -15.55 dB 5:15 03-Voodoo Child (Slight Return)
DR12 -2.40 dB -15.45 dB 4:09 04-Stepping Stone
DR12 -3.95 dB -19.42 dB 2:49 05-Castles Made Of Sand
DR11 -3.79 dB -16.82 dB 3:32 06-Killing Floor
DR12 -2.00 dB -15.99 dB 2:53 07-Purple Haze
DR11 -3.46 dB -16.56 dB 3:55 08-Red House
DR10 -3.91 dB -16.06 dB 2:19 09-Crosstown Traffic
DR11 -2.31 dB -15.95 dB 6:46 10-Third Stone From The Sun
DR12 -2.00 dB -15.22 dB 3:59 11-All Along The Watchtower
––––––––––––––––––––––––––––––––––––––––

Number of tracks: 11
Official DR value: DR11

Samplerate: 44100 Hz
Channels: 2
Bits per sample: 16
Bitrate: 827 kbps
Codec: FLAC

[CUETools log; Date: 03.04.2017 13:28:04; Version: 2.1.4]
Pregap length 00:00:37.
[CTDB TOCID: svmh.AoMCjhY_ymiBjc7UqNsfMA-] found.
Track | CTDB Status
1 | (3/3) Accurately ripped
2 | (3/3) Accurately ripped
3 | (3/3) Accurately ripped
4 | (3/3) Accurately ripped
5 | (3/3) Accurately ripped
6 | (3/3) Accurately ripped
7 | (3/3) Accurately ripped
8 | (3/3) Accurately ripped
9 | (3/3) Accurately ripped
10 | (3/3) Accurately ripped
11 | (3/3) Accurately ripped
[AccurateRip ID: 0013ea9f-00a8ed66-980aec0b] found.
Track [ CRC | V2 ] Status
01 [e7fdead8|242fab60] (0+0/2) No match
02 [9ed36502|194bf6e4] (0+0/2) No match
03 [351c93dc|df72a979] (0+0/2) No match
04 [3e6848a8|c06abd52] (0+0/2) No match
05 [ae575085|1ddae697] (0+0/2) No match
06 [ef4e6aef|01e065ee] (0+0/2) No match
07 [57f67369|475bfec9] (0+0/2) No match
08 [c66717f0|6f32fde2] (0+0/2) No match
09 [8a411f32|63a8a65e] (0+0/2) No match
10 [b5836467|edbe2193] (0+0/2) No match
11 [7b07c961|0e7af1d2] (0+0/2) No match
Offsetted by 667:
01 [c8a501b3] (1/2) Accurately ripped
02 [e47e823b] (1/2) Accurately ripped
03 [9d09bb4f] (1/2) Accurately ripped
04 [89a7f46e] (1/2) Accurately ripped
05 [7d8efe61] (1/2) Accurately ripped
06 [50df0aa6] (1/2) Accurately ripped
07 [51a9147c] (1/2) Accurately ripped
08 [e245f321] (1/2) Accurately ripped
09 [629ef92d] (1/2) Accurately ripped
10 [220e8ec9] (1/2) Accurately ripped
11 [fb01210a] (1/2) Accurately ripped

Track Peak [ CRC32 ] [W/O NULL] [ LOG ]
– 79,4 [F1A881E5] [B5870AAA] CRC32
01 77,4 [11630035] [2D2AA622]
02 74,3 [5FEF93AA] [BFF7049B]
03 76,5 [798DC47B] [2166798D]
04 75,8 [7AE7C343] [ABA408B8]
05 63,4 [4A329735] [D508AC51]
06 64,6 [D841627F] [3A3A7D83]
07 79,4 [7BDAB4D8] [F6F9C34A]
08 67,1 [310A66A7] [6F479A44]
09 63,7 [2EA1C29E] [8C897D6B]
10 76,6 [9B3D98B3] [40180969]
11 79,4 [7ADCEDFF] [3E6863D5]

Jimi Hendrix - Kiss The Sky (1984)

All thanks go to the original releaser

Jimi Hendrix in my Blog

Download Jimi Hendrix - Kiss The Sky (1984):