Subcategories

Jimi Hendrix - The Ultimate Experience (1992)

Posted By: v3122
Jimi Hendrix - The Ultimate Experience (1992)

Jimi Hendrix - The Ultimate Experience (1992)
EAC | Flac(Image) + Cue + Log & MP3 CBR 320Kbps
Polydor, 517 235-2 | ~ 475 or 173 Mb | Scans(jpg) -> 32 Mb
Blues Rock / Psychedelic Rock

As a single-disc compilation, The Ultimate Experience is hard to beat. Drawing from all of the original Jimi Hendrix Experience albums, the 20-track collection hits all of the major highpoints – "Purple Haze," "All Along the Watchtower," "Little Wing," "Red House," "The Wind Cries Mary," "Highway Chile," "Angel" – and gives an accurate impression of why Hendrix was so revolutionary and influential. All three of Hendrix's completed studio albums are mandatory listening, but The Ultimate Experience is a terrific introduction to the guitarist.

by Thom Owens, allmusic
Jimi Hendrix - The Ultimate Experience (1992)


Jimi Hendrix - The Ultimate Experience (1992):

Jimi Hendrix - The Ultimate Experience (1992)

Tracklist:

All Along The Watchtower
Purple Haze
Hey Joe
The Wind Cries Mary
Angel
Voodoo Child (Slight Return)
Foxy Lady
Burning Of The Midnight Lamp
Highway Chile
Crosstown Traffic
Castles Made Of Sand
Long Hot Summer Night
Red House
Manic Depression
Gypsy Eyes
Little Wing
Fire
Wait Until Tomorrow
Star Spangled Banner (Live)
Wild Thing (Live)

Exact Audio Copy V0.99 prebeta 5 from 4. May 2009

EAC extraction logfile from 6. May 2013, 22:34

JIMI HENDRIX / The Ultimate Experience

Used drive : ASUS DRW-24B3ST Adapter: 4 ID: 0

Read mode : Secure
Utilize accurate stream : Yes
Defeat audio cache : Yes
Make use of C2 pointers : No

Read offset correction : 6
Overread into Lead-In and Lead-Out : No
Fill up missing offset samples with silence : Yes
Delete leading and trailing silent blocks : No
Null samples used in CRC calculations : Yes
Used interface : Native Win32 interface for Win NT & 2000

Used output format : User Defined Encoder
Selected bitrate : 1024 kBit/s
Quality : High
Add ID3 tag : No
Command line compressor : C:\Program Files (x86)\EAC\WV\wavpack.exe
Additional command line options : -h -hh -m %s %d


TOC of the extracted CD

Track | Start | Length | Start sector | End sector
––––––––––––––––––––––––––––-
1 | 0:00.32 | 4:00.63 | 32 | 18094
2 | 4:01.20 | 2:51.30 | 18095 | 30949
3 | 6:52.50 | 3:30.57 | 30950 | 46756
4 | 10:23.32 | 3:22.20 | 46757 | 61926
5 | 13:45.52 | 4:26.60 | 61927 | 81936
6 | 18:12.37 | 5:13.28 | 81937 | 105439
7 | 23:25.65 | 3:19.42 | 105440 | 120406
8 | 26:45.32 | 3:40.45 | 120407 | 136951
9 | 30:26.02 | 3:33.18 | 136952 | 152944
10 | 33:59.20 | 2:20.55 | 152945 | 163499
11 | 36:20.00 | 2:49.22 | 163500 | 176196
12 | 39:09.22 | 3:27.38 | 176197 | 191759
13 | 42:36.60 | 3:55.10 | 191760 | 209394
14 | 46:31.70 | 3:43.07 | 209395 | 226126
15 | 50:15.02 | 3:44.55 | 226127 | 242981
16 | 53:59.57 | 2:26.60 | 242982 | 253991
17 | 56:26.42 | 2:44.53 | 253992 | 266344
18 | 59:11.20 | 3:02.22 | 266345 | 280016
19 | 62:13.42 | 4:01.15 | 280017 | 298106
20 | 66:14.57 | 6:55.23 | 298107 | 329254


Range status and errors

Selected range

Filename S:\JIMI HENDRIX\1992- The Ultimate Experience (NL HDCD Polydor • 517 235-2)\JIMI HENDRIX - The Ultimate Experience.wav

Peak level 98.2 %
Range quality 100.0 %
Test CRC DF7A06BE
Copy CRC DF7A06BE
Copy OK

No errors occurred


AccurateRip summary

Track 1 accurately ripped (confidence 82) [8DC95AAE]
Track 2 accurately ripped (confidence 83) [E91CFA90]
Track 3 accurately ripped (confidence 82) [FBEDA02D]
Track 4 accurately ripped (confidence 82) [77C2B004]
Track 5 accurately ripped (confidence 81) [7F42A8DA]
Track 6 accurately ripped (confidence 82) [EF6A4216]
Track 7 accurately ripped (confidence 80) [954A7460]
Track 8 accurately ripped (confidence 80) [7B79D63F]
Track 9 accurately ripped (confidence 80) [10C23885]
Track 10 accurately ripped (confidence 79) [7E45276A]
Track 11 accurately ripped (confidence 79) [224AB8C6]
Track 12 accurately ripped (confidence 79) [3630DEEF]
Track 13 accurately ripped (confidence 78) [5B0AC35D]
Track 14 accurately ripped (confidence 79) [3C2B72E3]
Track 15 accurately ripped (confidence 78) [11A278AF]
Track 16 accurately ripped (confidence 78) [BFF05E27]
Track 17 accurately ripped (confidence 78) [A90EAE5D]
Track 18 accurately ripped (confidence 78) [16C7D26C]
Track 19 accurately ripped (confidence 78) [A0899BFA]
Track 20 accurately ripped (confidence 76) [9FC312E5]

All tracks accurately ripped

End of status report

foobar2000 1.2.9 / Dynamic Range Meter 1.1.1
log date: 2017-04-07 17:32:21

––––––––––––––––––––––––––––––––––––––––
Analyzed: JIMI HENDRIX / The Ultimate Experience
––––––––––––––––––––––––––––––––––––––––

DR Peak RMS Duration Track
––––––––––––––––––––––––––––––––––––––––
DR9 -1.45 dB -12.27 dB 4:01 01-All Along The Watchtower
DR7 -0.31 dB -9.70 dB 2:51 02-Purple Haze
DR7 -0.53 dB -9.96 dB 3:31 03-Hey Joe
DR7 -0.61 dB -9.70 dB 3:22 04-The Wind Cries Mary
DR9 -0.90 dB -12.31 dB 4:27 05-Angel
DR8 -0.53 dB -10.44 dB 5:13 06-Voodoo Child (Slight Return)
DR7 -0.53 dB -9.24 dB 3:20 07-Foxy Lady
DR8 -0.61 dB -10.40 dB 3:41 08-Burning Of The Midnight Lamp
DR8 -0.15 dB -10.06 dB 3:33 09-Highway Chile
DR8 -0.61 dB -10.21 dB 2:21 10-Crosstown Traffic
DR10 -0.77 dB -14.13 dB 2:49 11-Castles Made Of Sand
DR7 -0.25 dB -9.63 dB 3:28 12-Long Hot Summer Night
DR8 -0.70 dB -10.41 dB 3:55 13-Red House
DR9 -0.53 dB -10.62 dB 3:43 14-Manic Depression
DR9 -0.53 dB -10.86 dB 3:45 15-Gypsy Eyes
DR10 -0.90 dB -13.57 dB 2:27 16-Little Wing
DR6 -0.44 dB -8.38 dB 2:45 17-Fire
DR9 -0.41 dB -11.21 dB 3:02 18-Wait Until Tomorrow
DR9 -0.93 dB -12.31 dB 4:01 19-Star Spangled Banner (Live)
DR10 -1.19 dB -12.18 dB 6:55 20-Wild Thing (Live)
––––––––––––––––––––––––––––––––––––––––

Number of tracks: 20
Official DR value: DR8

Samplerate: 44100 Hz
Channels: 2
Bits per sample: 16
Bitrate: 881 kbps
Codec: FLAC

[CUETools log; Date: 07.04.2017 17:32:10; Version: 2.1.4]
Pregap length 00:00:32.
HDCD: peak extend: yes, transient filter: none, gain: -4,0dB..0,0dB
[CTDB TOCID: Cc5VN1pSNBL.BAPOwwRdapNcmVI-] found.
Track | CTDB Status
1 | (120/122) Accurately ripped
2 | (120/122) Accurately ripped
3 | (119/122) Accurately ripped
4 | (120/122) Accurately ripped
5 | (120/122) Accurately ripped
6 | (120/122) Accurately ripped
7 | (120/122) Accurately ripped
8 | (115/122) Accurately ripped, or (4/122) differs in 193 samples @01:40:52-01:40:53
9 | (120/122) Accurately ripped
10 | (120/122) Accurately ripped
11 | (120/122) Accurately ripped
12 | (120/122) Accurately ripped
13 | (120/122) Accurately ripped
14 | (119/122) Accurately ripped
15 | (119/122) Accurately ripped
16 | (119/122) Accurately ripped
17 | (119/122) Accurately ripped
18 | (120/122) Accurately ripped
19 | (118/122) Accurately ripped
20 | (116/122) Accurately ripped, or (1/122) differs in 1675 samples @06:34:03,06:37:63-06:37:64,06:38:11,06:39:01,06:40:58,06:41:27,06:41:49,06:41:71,06:42:62,06:43:52-06:43:53,06:44:43-06:44:44,06:44:65-06:44:66,06:45:12-06:45:13,06:45:56-06:45:57,06:46:47-06:46:48,06:46:69-06:46:70,06:47:16,06:47:38,06:47:60,06:48:29,06:48:73,06:49:42,06:50:11,06:50:33,06:50:55,06:51:02,06:51:24,06:51:68,06:52:15,06:52:37,06:52:59,06:53:28,06:53:50,06:53:72,06:54:19,06:54:40-06:54:41,06:54:62-06:54:63
[AccurateRip ID: 0033c65f-02f368be-1c112614] found.
Track [ CRC | V2 ] Status
01 [8dc95aae|e2cd9a0d] (086+087/178) Accurately ripped
02 [e91cfa90|c8e664b5] (087+086/178) Accurately ripped
03 [fbeda02d|a689d3dc] (086+086/177) Accurately ripped
04 [77c2b004|59bef879] (085+085/176) Accurately ripped
05 [7f42a8da|94bd5ac0] (085+084/175) Accurately ripped
06 [ef6a4216|3d32105f] (086+084/176) Accurately ripped
07 [954a7460|9b4cbbf0] (084+084/174) Accurately ripped
08 [7b79d63f|e236ca19] (083+085/174) Accurately ripped
09 [10c23885|12fe2c84] (083+084/173) Accurately ripped
10 [7e45276a|ee9bab2b] (082+084/172) Accurately ripped
11 [224ab8c6|a4bf3a55] (082+085/173) Accurately ripped
12 [3630deef|0d56290b] (082+085/173) Accurately ripped
13 [5b0ac35d|56baff93] (082+084/172) Accurately ripped
14 [3c2b72e3|9c8d3dc7] (082+084/172) Accurately ripped
15 [11a278af|a5344849] (081+085/172) Accurately ripped
16 [bff05e27|b762bf7f] (081+084/171) Accurately ripped
17 [a90eae5d|ba306a6f] (081+084/171) Accurately ripped
18 [16c7d26c|7ca1adaf] (081+085/171) Accurately ripped
19 [a0899bfa|bc6dc257] (081+084/169) Accurately ripped
20 [9fc312e5|ae6350cf] (079+083/167) Accurately ripped
Offsetted by -884:
01 [c4a0d0f1] (003/178) Accurately ripped
02 [9884cb3d] (003/178) Accurately ripped
03 [c84007cc] (003/177) Accurately ripped
04 [a1b0f5b0] (003/176) Accurately ripped
05 [e33fcc32] (003/175) Accurately ripped
06 [e3a8931c] (003/176) Accurately ripped
07 [217e8d23] (003/174) Accurately ripped
08 [d420018e] (000/174) No match (V2 was not tested)
09 [cd5c99c7] (003/173) Accurately ripped
10 [d501226c] (003/172) Accurately ripped
11 [35145c67] (003/173) Accurately ripped
12 [eaa96323] (003/173) Accurately ripped
13 [3a0094bc] (003/172) Accurately ripped
14 [ccb03e84] (003/172) Accurately ripped
15 [42b1374d] (003/172) Accurately ripped
16 [a8ecc41d] (003/171) Accurately ripped
17 [050f4c6e] (003/171) Accurately ripped
18 [3a71e653] (003/171) Accurately ripped
19 [3ad86543] (002/169) Accurately ripped
20 [2f529e1c] (002/167) Accurately ripped
Offsetted by 6:
01 [72ed4f57] (000/178) No match (V2 was not tested)
02 [6f281c71] (000/178) No match (V2 was not tested)
03 [378b4752] (000/177) No match (V2 was not tested)
04 [5ae1f627] (000/176) No match (V2 was not tested)
05 [7f240e4c] (000/175) No match (V2 was not tested)
06 [8191c9c9] (000/176) No match (V2 was not tested)
07 [37ed04e4] (000/174) No match (V2 was not tested)
08 [7fe62e68] (000/174) No match (V2 was not tested)
09 [eb75723c] (000/173) No match (V2 was not tested)
10 [a43f3429] (000/172) No match (V2 was not tested)
11 [caed7542] (000/173) No match (V2 was not tested)
12 [5339b4c6] (000/173) No match (V2 was not tested)
13 [df092a7f] (000/172) No match (V2 was not tested)
14 [3ae316fb] (000/172) No match (V2 was not tested)
15 [18647c99] (000/172) No match (V2 was not tested)
16 [fbcdb268] (000/171) No match (V2 was not tested)
17 [f203b94e] (000/171) No match (V2 was not tested)
18 [38435366] (000/171) No match (V2 was not tested)
19 [de1cb4cd] (000/169) No match (V2 was not tested)
20 [fa9d26e5] (000/167) No match (V2 was not tested)

Track Peak [ CRC32 ] [W/O NULL] [ LOG ]
– 98,2 [DF7A06BE] [B9733F0E] CRC32
01 84,6 [D65766FE] [910FCC61]
02 96,4 [A9C74A34] [D02C9E3B]
03 94,0 [CDA10B32] [20A8B6D8]
04 93,1 [064C5DBA] [EC7D2996]
05 90,1 [6A56FD29] [03FF9306]
06 94,0 [2FA36BE0] [DFFB5CAF]
07 94,0 [8773DB1A] [96207358]
08 93,1 [88C96DDC] [382B7A71]
09 98,2 [7B04025A] [5AE9595A]
10 93,1 [DE688CB7] [BFC752CB]
11 91,5 [22D4F605] [04B85411]
12 97,1 [EBB5E3C5] [6629E298]
13 92,2 [F029EC1C] [531E6011]
14 94,0 [BBCC6B87] [8156D053]
15 94,0 [859F7C20] [98139B10]
16 90,1 [17D6536A] [E46F60EE]
17 95,0 [488509F9] [A133B414]
18 95,4 [DECB9CF0] [436D414D]
19 89,8 [7639E539] [76D748AA]
20 87,1 [F2BAB750] [1585800F]

Jimi Hendrix - The Ultimate Experience (1992)

All thanks go to the original releaser

Jimi Hendrix in my Blog

Download Jimi Hendrix - The Ultimate Experience (1992):