Subcategories

Jimi Hendrix - Live At The Fillmore East (1999/2011) 2CD+DVD Re-up

Posted By: Andi_Deris
Jimi Hendrix - Live At The Fillmore East (1999/2011) 2CD+DVD Re-up

Jimi Hendrix - Live At The Fillmore East (1999/2011) 2CD+DVD
EAC Rip | FLAC: Image+Cue+Log | 846 Mb | MP3 CBR 320 kbps | 304 Mb | Scans | 01:55:01
DVD9 | Video: NTSC 720x480 (4:3) | Audio: Dolby AC3 5.1, LinearPCM 2.0 | 5.8 Gb | Scans | 02:21:59
Experience Hendrix/MCA Records, Inc. | MCAD2-11931
Rock, Psychedelic Rock, Blues Rock, Guitar Virtuoso

Live at the Fillmore East is a posthumous live album by Jimi Hendrix released on February 23, 1999. The album documents Hendrix's performances with the Band of Gypsys at the Fillmore East on December 31, 1969 and January 1, 1970. It is drawn from the same performances as, and can be seen as an extended complement to, the Band of Gypsys album, consisting mostly of songs not on the original album. Continuing right where the seminal classic Band Of Gypsys left off, Live At The Fillmore East expands on the ageless classic. Features 16 stunning recordings, 13 previously unreleased, from the series of four New Year's concerts at Bill Graham's famed Fillmore East Theater.

Structural Analisys - Staad Pro v8i




Structural Analisys - Staad Pro v8i


Disc One

01. Stone Free (January 1, 1970 2nd Show) (12:56)
02. Power Of Soul (January 1, 1970 1st Show) (6:19)
03. Hear My Train A Comin' (December 31, 1969 1 st Show) (9:02)
04. Izabella (December 31, 1969 1st Show) (3:40)
05. Machine Gun (January 1, 1970 2nd Show) (11:35)
06. Voodoo Child (Slight Return) (January 1, 1970 2nd Show) (6:01)
07. We Gotta Live Together (January 1, 1970 2nd Show) (9:55)

Structural Analisys - Staad Pro v8i


Disc Two

01. Auld Lang Syne (December 31, 1969 2nd Show) (3:54)
02. Who Knows (December 31, 1969 2nd Show) (3:55)
03. Changes (December 31, 1969 2nd Show) (5:38)
04. Machine Gun (December 31, 1969 2nd Show) (13:37)
05. Stepping Stone (January 1, 1970 1st Show) (5:20)
06. Stop (January 1, 1970 1st Show) (5:43)
07. Earth Blues (January 1, 1970 2nd Show) (5:58)
08. Burning Desire (January 1, 1970 1st Show) (8:22)
09. Wild Thing (January 1, 1970 2nd Show) (3:06)

Compilation Produced by Janie Hendrix, Eddie Kramer & John McDermott

The Band

• Jimi Hendrix - guitar, vocals
• Billy Cox - bass, backing vocals
Buddy Miles - drums, backing vocals, lead vocal on tracks D1-7, D2-3 & D2-6

Structural Analisys - Staad Pro v8i


DVD

2011 re-release of the Grammy-winning 1999 documentary film. Features an all-new stereo and 5.1 surround sound mix that are exclusive to this release.

Winner of the 2000 Grammy Award for "Best Long Form Music Video," Hendrix: Band Of Gypsys delves behind the scenes on the making of the seminal classic and the five live performances that comprised the period of the Band Of Gypsys. This 83-minute documentary features new interviews and rare and archival footage of Jimi Hendrix and the Band Of Gypsys including an additional 30 minutes of footage not included in the original television broadcast. Exclusive to the DVD release is 54 minutes of black & white video footage from the Band Of Gypsys' January 1, 1970 Fillmore East performance, plus several never before seen photos by photographer Jan Blom. - Experience Hendrix/Legacy Recordings

Documentary

01. Band Of Gypsys
02. Billy Cox
03. Izabella
04. Buddy Miles
05. The Difference
06. Becoming The Band Of Gypsys
07. Electric Lady Studios
08. A Force
09. Machine Gun
10. Foxey Lady
11. A Necessary Point In Time
12. Credits

A Second Look January 1, 1970 / Fillmore East, NYC

01. Who Knows - Stereo/5.1 Version
02. Machine Gun - Stereo/5.1 Version
03. Changes - Stereo/5.1 Version
04. Power Of Soul - Stereo/5.1 Version
05. Stepping Stone - Stereo/5.1 Version
06. Foxey Lady - Stereo/5.1 Version
07. Stop - Stereo/5.1 Version
08. Earth Blues - Stereo/5.1 Version

Subtitles: English, Espanol, Francais, Nederlands, Deutsch, Italiano, Portugues

Structural Analisys - Staad Pro v8i
Structural Analisys - Staad Pro v8i
Structural Analisys - Staad Pro v8i

Structural Analisys - Staad Pro v8i
Structural Analisys - Staad Pro v8i
Structural Analisys - Staad Pro v8i
Structural Analisys - Staad Pro v8i


Structural Analisys - Staad Pro v8i


Exact Audio Copy V1.0 beta 3 from 29. August 2011

EAC extraction logfile from 11. December 2013, 3:30

Jimi Hendrix & Band of Gypsys / Live At The Fillmore East

Used drive : _NEC CD-RW NR-9100A Adapter: 0 ID: 0

Read mode : Secure
Utilize accurate stream : Yes
Defeat audio cache : Yes
Make use of C2 pointers : No

Read offset correction : 685
Overread into Lead-In and Lead-Out : No
Fill up missing offset samples with silence : Yes
Delete leading and trailing silent blocks : No
Null samples used in CRC calculations : Yes
Used interface : Native Win32 interface for Win NT & 2000

Used output format : User Defined Encoder
Selected bitrate : 128 kBit/s
Quality : High
Add ID3 tag : No
Command line compressor : D:\MEDIA\FLAC\flac.exe
Additional command line options : -V -8 -T "Date=%year%" -T "Genre=%genre%" %source%


TOC of the extracted CD

Track | Start | Length | Start sector | End sector
––––––––––––––––––––––––––––-
1 | 0:00.00 | 12:56.15 | 0 | 58214
2 | 12:56.15 | 6:19.17 | 58215 | 86656
3 | 19:15.32 | 9:01.73 | 86657 | 127304
4 | 28:17.30 | 3:40.60 | 127305 | 143864
5 | 31:58.15 | 11:35.40 | 143865 | 196029
6 | 43:33.55 | 6:01.60 | 196030 | 223164
7 | 49:35.40 | 9:55.05 | 223165 | 267794


Range status and errors

Selected range

Filename H:\Hendrix\Jimi Hendrix & Band of Gypsys - Live At The Fillmore East.wav

Peak level 100.0 %
Extraction speed 7.6 X
Range quality 100.0 %
Test CRC 550B086F
Copy CRC 550B086F
Copy OK

No errors occurred

End of status report

==== Log checksum 6FB5CC01CCCC0A956ACA3F65DD3D38968D4E52CED90298ED9A21CD0D159DBEBD ====

Exact Audio Copy V1.0 beta 3 from 29. August 2011

EAC extraction logfile from 11. December 2013, 3:56

Jimi Hendrix & Band of Gypsys / Live At The Fillmore East

Used drive : _NEC CD-RW NR-9100A Adapter: 0 ID: 0

Read mode : Secure
Utilize accurate stream : Yes
Defeat audio cache : Yes
Make use of C2 pointers : No

Read offset correction : 685
Overread into Lead-In and Lead-Out : No
Fill up missing offset samples with silence : Yes
Delete leading and trailing silent blocks : No
Null samples used in CRC calculations : Yes
Used interface : Native Win32 interface for Win NT & 2000

Used output format : User Defined Encoder
Selected bitrate : 128 kBit/s
Quality : High
Add ID3 tag : No
Command line compressor : D:\MEDIA\FLAC\flac.exe
Additional command line options : -V -8 -T "Date=%year%" -T "Genre=%genre%" %source%


TOC of the extracted CD

Track | Start | Length | Start sector | End sector
––––––––––––––––––––––––––––-
1 | 0:00.00 | 3:54.00 | 0 | 17549
2 | 3:54.00 | 3:55.55 | 17550 | 35229
3 | 7:49.55 | 5:38.30 | 35230 | 60609
4 | 13:28.10 | 13:36.70 | 60610 | 121879
5 | 27:05.05 | 5:20.32 | 121880 | 145911
6 | 32:25.37 | 5:43.20 | 145912 | 171656
7 | 38:08.57 | 5:58.30 | 171657 | 198536
8 | 44:07.12 | 8:22.70 | 198537 | 236256
9 | 52:30.07 | 3:06.55 | 236257 | 250261


Range status and errors

Selected range

Filename H:\Hendrix\Disc2\Jimi Hendrix & Band of Gypsys - Live At The Fillmore East.wav

Peak level 100.0 %
Extraction speed 6.9 X
Range quality 99.9 %
Test CRC 1BED3A96
Copy CRC 1BED3A96
Copy OK

No errors occurred

End of status report

==== Log checksum 9279EFE20EA1658C37EC3F6F9D8AF21C30088A0099607D3A5BA3414A99653C3B ====

Enabled regions: 1, 2, 3, 4, 5, 6, 7, 8

VTS_01 :
Play Length: 01:22:37+00:00:28+00:58:54
Video: NTSC 4:3 (720x480) VBR
Audio:
English, LPCM, Delay = 0 mSec
English,

Subtitles:
English
Espanol
Francais
Nederlands
Deutsch
Italiano
Portugues

* Menus Information *

VIDEO_TS Menu
Video:
NTSC 4:3 (720x480) VBR
Audio:
Not specified (Dolby AC3, 2 ch)
English Language Unit :
Title Menu

VTS_01 Menu
Video:
NTSC 4:3 (720x480) VBR
Audio:
Not specified (Dolby AC3, 2 ch)
English Language Unit :
Root Menu


Many thanks to the original uploader: szenghis
Many thanks to the original uploader (DVD): Holbkh



Password: pass