Subcategories

Jimmy Dawkins - Hot Wire 81 (1981) {1994, Reissue}

Posted By: popsakov
Jimmy Dawkins - Hot Wire 81 (1981) {1994, Reissue}

Jimmy Dawkins - Hot Wire 81 (1981) {1994, Reissue}
EAC Rip | FLAC (Tracks) + Cue + m3u + Log ~ 232 Mb | MP3 CBR320 ~ 106 Mb
Scans Included (JPG, 600 dpi) | RAR 5% Recovery
Chicago Blues, Electric Chicago Blues, Modern Electric Blues | Evidence Music #ECD 26043-2

Chicago guitarist Jimmy Dawkins would have preferred to leave his longtime nickname "Fast Fingers" behind. It was always something of a stylistic misnomer anyway; Dawkins' West Side-styled guitar slashed and surged, but seldom burned with incendiary speed. Dawkins' blues were generally of the brooding, introspective variety – he didn't engage in flashy pyrotechnics or outrageous showmanship.

It took a long time for Dawkins to progress from West Side fixture to nationally known recording artist. He rode a Greyhound bus out of Mississippi in 1955, dressing warmly to ward off the Windy City's infamous chill factor. Only trouble was, he arrived on a sweltering July day! Harpist Billy Boy Arnold offered the newcomer encouragement, and he eventually carved out a niche on the competitive West Side scene (his peers included Magic Sam and Luther Allison).

Sam introduced Dawkins to Delmark Records boss Bob Koester. Fast Fingers, Dawkins' 1969 debut LP for Delmark – which remained his best album – was a taut, uncompromising piece of work that won the Grand Prix du Disque de Jazz from the Hot Club of France in 1971 as the year's top album. Andrew "Big Voice" Odom shared the singing and Otis Rush the second guitar duties on Dawkins' 1971 encore, All for Business. But after his Delmark LP Blisterstring, Dawkins' subsequent recordings lacked intensity until 1991's oddly titled Kant Sheck Dees Bluze for Chicago's Earwig Records. After that, Dawkins waxed discs for Ichiban and Fedora, and continued to tour extensively until health problems slowed him down. Jimmy Dawkins passed away April 10, 2013.
~ All Music

***************

Jimmy Dawkins - Hot Wire 81 (1981) {1994, Reissue}

Jimmy Dawkins - Hot Wire 81 (1981) {1994, Reissue}

Track List:

01. You Just A Baby Child [5:58]
02. Ruff Times [5:31]
03. Welfare Line [8:21]
04. Kold Actions [7:16]
05. Roc-Kin-Sole [5:09]
06. Peeper's Music [4:26]
07. My Way [5:16]

Recorded at Studio Davout, Paris, on March 22th 1981

Personnel:
Bass - Sylvester Boines
Drums - James Schutte
Lead Guitar - Jimmy Dawkins
Rhythm Guitar - Richard Kirch
Vocals - Jimmy Dawkins

Exact Audio Copy V1.3 from 2. September 2016

EAC extraction logfile from 17. February 2018, 21:38

Jimmy Dawkins / Hot Wire 81

Used drive : TSSTcorpCDDVDW SH-224DB Adapter: 1 ID: 0

Read mode : Secure
Utilize accurate stream : Yes
Defeat audio cache : Yes
Make use of C2 pointers : No

Read offset correction : 6
Overread into Lead-In and Lead-Out : No
Fill up missing offset samples with silence : Yes
Delete leading and trailing silent blocks : No
Null samples used in CRC calculations : Yes
Used interface : Native Win32 interface for Win NT & 2000
Gap handling : Appended to previous track

Used output format : User Defined Encoder
Selected bitrate : 1024 kBit/s
Quality : High
Add ID3 tag : No
Command line compressor : C:\Program Files (x86)\Exact Audio Copy\Flac\flac.exe
Additional command line options : -8 -V -T "ARTIST=%artist%" -T "TITLE=%title%" -T "ALBUM=%albumtitle%" -T "DATE=%year%" -T "TRACKNUMBER=%tracknr%" -T "GENRE=%genre%" -T "PERFORMER=%albuminterpret%" -T "COMPOSER=%composer%" %haslyrics%–tag-from-file=LYRICS="%lyricsfile%"%haslyrics% -T "ALBUMARTIST=%albumartist%" -T "DISCNUMBER=%cdnumber%" -T "TOTALDISCS=%totalcds%" -T "TOTALTRACKS=%numtracks%" -T "COMMENT=%comment%" %hascover%–picture="%coverfile%"%hascover% %source% -o %dest%


TOC of the extracted CD

Track | Start | Length | Start sector | End sector
––––––––––––––––––––––––––––-
1 | 0:00.00 | 5:59.32 | 0 | 26956
2 | 5:59.32 | 5:32.66 | 26957 | 51922
3 | 11:32.23 | 8:23.67 | 51923 | 89714
4 | 19:56.15 | 7:17.43 | 89715 | 122532
5 | 27:13.58 | 5:11.12 | 122533 | 145869
6 | 32:24.70 | 4:26.13 | 145870 | 165832
7 | 36:51.08 | 5:15.74 | 165833 | 189531


Track 1

Filename D:\Users\jpaul\Music\neraissa13\Hot Wire 81\01 - You Just A Baby Child.wav

Pre-gap length 0:00:02.00

Peak level 75.6 %
Extraction speed 1.9 X
Track quality 100.0 %
Test CRC 808C2492
Copy CRC 808C2492
Accurately ripped (confidence 2) [E17F53F6] (AR v2)
Copy OK

Track 2

Filename D:\Users\jpaul\Music\neraissa13\Hot Wire 81\02 - Ruff Times.wav

Pre-gap length 0:00:01.16

Peak level 74.6 %
Extraction speed 5.3 X
Track quality 100.0 %
Test CRC 4D84E27D
Copy CRC 4D84E27D
Accurately ripped (confidence 2) [6353AB62] (AR v2)
Copy OK

Track 3

Filename D:\Users\jpaul\Music\neraissa13\Hot Wire 81\03 - Welfare Line.wav

Pre-gap length 0:00:02.20

Peak level 79.1 %
Extraction speed 6.2 X
Track quality 100.0 %
Test CRC B8F4B2F8
Copy CRC B8F4B2F8
Accurately ripped (confidence 2) [CA0874B4] (AR v2)
Copy OK

Track 4

Filename D:\Users\jpaul\Music\neraissa13\Hot Wire 81\04 - Kold Actions.wav

Pre-gap length 0:00:03.00

Peak level 76.0 %
Extraction speed 6.3 X
Track quality 99.9 %
Test CRC 40101715
Copy CRC 40101715
Accurately ripped (confidence 2) [0AD08F49] (AR v2)
Copy OK

Track 5

Filename D:\Users\jpaul\Music\neraissa13\Hot Wire 81\05 - Roc-Kin-Sole.wav

Pre-gap length 0:00:01.26

Peak level 82.8 %
Extraction speed 7.0 X
Track quality 100.0 %
Test CRC 7D670A1F
Copy CRC 7D670A1F
Accurately ripped (confidence 2) [D1D6E803] (AR v2)
Copy OK

Track 6

Filename D:\Users\jpaul\Music\neraissa13\Hot Wire 81\06 - Peeper's Music.wav

Pre-gap length 0:00:02.36

Peak level 72.0 %
Extraction speed 7.1 X
Track quality 100.0 %
Test CRC 5E3E44A9
Copy CRC 5E3E44A9
Accurately ripped (confidence 2) [D5F8DE06] (AR v2)
Copy OK

Track 7

Filename D:\Users\jpaul\Music\neraissa13\Hot Wire 81\07 - My Way.wav

Peak level 84.0 %
Extraction speed 7.5 X
Track quality 100.0 %
Test CRC 0E09EEA0
Copy CRC 0E09EEA0
Accurately ripped (confidence 2) [D927DF00] (AR v2)
Copy OK


All tracks accurately ripped

No errors occurred

End of status report

–– CUETools DB Plugin V2.1.6

[CTDB TOCID: _IevaBZ0npbMDjHXyvCPAwc0a6E-] found
Submit result: _IevaBZ0npbMDjHXyvCPAwc0a6E- has been confirmed
Track | CTDB Status
1 | (3/3) Accurately ripped
2 | (3/3) Accurately ripped
3 | (3/3) Accurately ripped
4 | (3/3) Accurately ripped
5 | (3/3) Accurately ripped
6 | (3/3) Accurately ripped
7 | (3/3) Accurately ripped


==== Log checksum C0E46C0A7E7C213C7BF8B976B0DF3B7C77D442836C14516EB3B57E1B08E35A9E ====

foobar2000 1.3.16 / Dynamic Range Meter 1.1.1
log date: 2018-04-30 13:34:59

––––––––––––––––––––––––––––––––––––––––
Analyzed: Jimmy Dawkins / Hot Wire 81
––––––––––––––––––––––––––––––––––––––––

DR Peak RMS Duration Track
––––––––––––––––––––––––––––––––––––––––
DR14 -2.42 dB -18.32 dB 5:59 01-You Just A Baby Child
DR13 -2.54 dB -17.45 dB 5:33 02-Ruff Times
DR15 -2.03 dB -20.71 dB 8:24 03-Welfare Line
DR16 -2.37 dB -23.27 dB 7:18 04-Kold Actions
DR16 -1.64 dB -19.55 dB 5:11 05-Roc-Kin-Sole
DR14 -2.85 dB -18.80 dB 4:26 06-Peppers Music
DR13 -1.51 dB -16.54 dB 5:16 07-My Way
––––––––––––––––––––––––––––––––––––––––

Number of tracks: 7
Official DR value: DR14

Samplerate: 44100 Hz
Channels: 2
Bits per sample: 16
Bitrate: 851 kbps
Codec: FLAC
================================================================================

[CUETools log; Date: 30.04.2018 13:35:48; Version: 2.1.6]
[CTDB TOCID: _IevaBZ0npbMDjHXyvCPAwc0a6E-] found.
Track | CTDB Status
1 | (4/4) Accurately ripped
2 | (4/4) Accurately ripped
3 | (4/4) Accurately ripped
4 | (4/4) Accurately ripped
5 | (4/4) Accurately ripped
6 | (4/4) Accurately ripped
7 | (4/4) Accurately ripped
[AccurateRip ID: 000c172b-00483a4c-5d09df07] found.
Track [ CRC | V2 ] Status
01 [f4e15031|e17f53f6] (3+2/7) Accurately ripped
02 [a9d0333a|6353ab62] (3+2/7) Accurately ripped
03 [0690010e|ca0874b4] (3+2/7) Accurately ripped
04 [1d1f2e2b|0ad08f49] (3+2/7) Accurately ripped
05 [e8122be8|d1d6e803] (3+2/7) Accurately ripped
06 [22c034a0|d5f8de06] (3+2/7) Accurately ripped
07 [dda41c0a|d927df00] (3+2/7) Accurately ripped
Offsetted by -267:
01 [e0517624] (2/7) Accurately ripped
02 [bb342bfd] (2/7) Accurately ripped
03 [8dbf1f71] (2/7) Accurately ripped
04 [afd86c63] (2/7) Accurately ripped
05 [c0889f19] (2/7) Accurately ripped
06 [49acad85] (2/7) Accurately ripped
07 [7ebb4104] (2/7) Accurately ripped

Track Peak [ CRC32 ] [W/O NULL] [ LOG ]
– 84,0 [3F7514AA] [017DD020]
01 75,6 [808C2492] [6A769E1A] CRC32
02 74,6 [4D84E27D] [7B1081FA] CRC32
03 79,1 [B8F4B2F8] [56D441B8] CRC32
04 76,0 [40101715] [60E0B534] CRC32
05 82,8 [7D670A1F] [24090750] CRC32
06 72,0 [5E3E44A9] [275E9D9D] CRC32
07 84,0 [0E09EEA0] [4C856E34] CRC32

Jimmy Dawkins - Hot Wire 81 (1981) {1994, Reissue}

All thanks go to the original ripper(s) …

>>> My Blog <<<

Download from icerbox.com: