Subcategories

Jimmy Johnson & Luther Johnson Jr. - Ma Bea's Rock (1975) {2001, Reissue}

Posted By: popsakov
Jimmy Johnson & Luther Johnson Jr. - Ma Bea's Rock (1975) {2001, Reissue}

Jimmy Johnson & Luther Johnson Jr. - Ma Bea's Rock (1975) {2001, Reissue}
EAC Rip | FLAC (Tracks) + Cue + m3u + Log ~ 351 Mb | MP3 CBR320 ~ 186 Mb
Full Scans | 01:01:40 | RAR 5% Recovery
Modern Electric Blues, Chicago Blues | Storyville #STCD 8050

In 2001, the Danish label Storyville released this unusual CD, which is rare today. It contains recordings from a 1975 concert at Ma Bea's in New York, originally released in 1975 in France on vinyl with eight songs. And now there are 14 songs on the disc, 7 are performed by Jimmy, and the other 7 - by Luther Johnson. Everyone has their own group, among the sidemen there are famous people: Big Voice Odom (vocal), Willie Lyons (guitar), Willie Kent (bass). Both brothers perform classics of blues and soul blues: "So Many Roads", "Crosscut Saw", "I Believe My Time Ain't Long", "All Your Love", "Same Old Blues". ~ Dmitry Kazantsev

***************

Jimmy Johnson & Luther Johnson Jr. - Ma Bea's Rock (1975) {2001, Reissue}

Jimmy Johnson & Luther Johnson Jr. - Ma Bea's Rock (1975) {2001, Reissue}

Track List:

01. So Many Roads [6:29]
02. Crosscut Saw [4:09]
03. Ma Bea's Rock [3:14]
04. Feel So Bad [4:24]
05. I Believe My Time Ain't Long [4:54]
06. All Your Love [4:39]
07. You Gotta Have Soul [4:15]
08. My Own Fault [5:30]
09. Get Ready Here I Come [3:52]
10. Same Old Blues [4:11]
11. Got A Mind To Travel [4:31]
12. Can You Use A Man Like Me [3:55]
13. I Got To Be Crazy [4:05]
14. Got Papers On Your Baby [3:33]

Track 1, 2, 3, 4,8,9,10 recorded live at MA BEAS, 3001 West Madison on October 15, 1975
Jimmy Johnson - guitar, vocal on 1, 2. 8, 9, 10
Jimmy Dawkins - guitar
Sylvester Boines - bass
Tyrone Centuray - drums
Andrew "Big Voice" Odom - vocal on 4

Track 5. 6. 7. 11. 12, 13 & 14 recorded on October 17, 1975
Luther Johnson Jr. - guitar, vocal 6. 7. 11, 12, 13 & 14
Willie James Lyons - guitar
Willie Kent - bass
Tyrone Centuray - drums

Producer – Marcelle Morgantini
Notes: Recorded live at "Ma Bea's" 3001 W. Madison on october 15th 1975, october 17th, 1975

Exact Audio Copy V1.1 from 23. June 2015

EAC extraction logfile from 7. October 2020, 18:00

Jimmy Johnson & Luther Johnson, Jr. / Ma Bea's Rock

Used drive : Optiarc DVD RW AD-7283S Adapter: 1 ID: 0

Read mode : Secure
Utilize accurate stream : Yes
Defeat audio cache : Yes
Make use of C2 pointers : No

Read offset correction : 48
Overread into Lead-In and Lead-Out : No
Fill up missing offset samples with silence : Yes
Delete leading and trailing silent blocks : No
Null samples used in CRC calculations : Yes
Used interface : Native Win32 interface for Win NT & 2000
Gap handling : Appended to previous track

Used output format : User Defined Encoder
Selected bitrate : 128 kBit/s
Quality : High
Add ID3 tag : No
Command line compressor : C:\Program Files (x86)\Exact Audio Copy\Flac\flac.exe
Additional command line options : -V -8 -T "Genre=%genre%" -T "Artist=%artist%" -T "Title=%title%" -T "Album=%albumtitle%" -T "Date=%year%" -T "Tracknumber=%tracknr%" -T "Comment=%comment%" %source%


TOC of the extracted CD

Track | Start | Length | Start sector | End sector
––––––––––––––––––––––––––––-
1 | 0:01.00 | 6:31.50 | 75 | 29449
2 | 6:32.50 | 4:11.72 | 29450 | 48346
3 | 10:44.47 | 3:16.39 | 48347 | 63085
4 | 14:01.11 | 4:23.45 | 63086 | 82855
5 | 18:24.56 | 4:57.03 | 82856 | 105133
6 | 23:21.59 | 4:41.57 | 105134 | 126265
7 | 28:03.41 | 4:18.34 | 126266 | 145649
8 | 32:22.00 | 5:33.25 | 145650 | 170649
9 | 37:55.25 | 3:54.70 | 170650 | 188269
10 | 41:50.20 | 4:13.39 | 188270 | 207283
11 | 46:03.59 | 4:34.21 | 207284 | 227854
12 | 50:38.05 | 3:57.49 | 227855 | 245678
13 | 54:35.54 | 4:07.71 | 245679 | 264274
14 | 58:43.50 | 3:33.08 | 264275 | 280257


Track 1

Filename F:\alexbras\1975 Jimmy Johnson - Ma Bea's Rock (2001 Storyville STCD 8050)\01 So Many Roads.wav

Pre-gap length 0:00:03.00

Peak level 90.1 %
Extraction speed 2.5 X
Track quality 100.0 %
Test CRC CAA101A8
Copy CRC CAA101A8
Track not present in AccurateRip database
Copy OK

Track 2

Filename F:\alexbras\1975 Jimmy Johnson - Ma Bea's Rock (2001 Storyville STCD 8050)\02 Crosscut Saw.wav

Pre-gap length 0:00:03.00

Peak level 94.8 %
Extraction speed 2.5 X
Track quality 99.9 %
Test CRC 9251E9CF
Copy CRC 9251E9CF
Track not present in AccurateRip database
Copy OK

Track 3

Filename F:\alexbras\1975 Jimmy Johnson - Ma Bea's Rock (2001 Storyville STCD 8050)\03 Ma Bea's Rock.wav

Pre-gap length 0:00:03.00

Peak level 77.7 %
Extraction speed 2.5 X
Track quality 99.9 %
Test CRC C8A91EBE
Copy CRC C8A91EBE
Track not present in AccurateRip database
Copy OK

Track 4

Filename F:\alexbras\1975 Jimmy Johnson - Ma Bea's Rock (2001 Storyville STCD 8050)\04 Feel So Bad.wav

Pre-gap length 0:00:03.00

Peak level 86.2 %
Extraction speed 2.9 X
Track quality 99.9 %
Test CRC B8851F03
Copy CRC B8851F03
Track not present in AccurateRip database
Copy OK

Track 5

Filename F:\alexbras\1975 Jimmy Johnson - Ma Bea's Rock (2001 Storyville STCD 8050)\05 I Believe My Time Ain't Long.wav

Peak level 63.0 %
Extraction speed 3.5 X
Track quality 100.0 %
Test CRC 3E24A130
Copy CRC 3E24A130
Track not present in AccurateRip database
Copy OK

Track 6

Filename F:\alexbras\1975 Jimmy Johnson - Ma Bea's Rock (2001 Storyville STCD 8050)\06 All Your Love.wav

Pre-gap length 0:00:03.00

Peak level 83.1 %
Extraction speed 3.7 X
Track quality 100.0 %
Test CRC 676CC1C6
Copy CRC 676CC1C6
Track not present in AccurateRip database
Copy OK

Track 7

Filename F:\alexbras\1975 Jimmy Johnson - Ma Bea's Rock (2001 Storyville STCD 8050)\07 You Gotta Have Soul.wav

Pre-gap length 0:00:03.00

Peak level 69.9 %
Extraction speed 3.9 X
Track quality 100.0 %
Test CRC 86F05FF0
Copy CRC 86F05FF0
Track not present in AccurateRip database
Copy OK

Track 8

Filename F:\alexbras\1975 Jimmy Johnson - Ma Bea's Rock (2001 Storyville STCD 8050)\08 My Own Fault.wav

Pre-gap length 0:00:03.00

Peak level 87.1 %
Extraction speed 3.8 X
Track quality 99.9 %
Test CRC D7B8D903
Copy CRC D7B8D903
Track not present in AccurateRip database
Copy OK

Track 9

Filename F:\alexbras\1975 Jimmy Johnson - Ma Bea's Rock (2001 Storyville STCD 8050)\09 Get Ready Here I Come.wav

Pre-gap length 0:00:03.00

Peak level 58.5 %
Extraction speed 4.2 X
Track quality 100.0 %
Test CRC 7EBE993F
Copy CRC 7EBE993F
Track not present in AccurateRip database
Copy OK

Track 10

Filename F:\alexbras\1975 Jimmy Johnson - Ma Bea's Rock (2001 Storyville STCD 8050)\10 Same Old Blues.wav

Pre-gap length 0:00:03.00

Peak level 54.6 %
Extraction speed 4.4 X
Track quality 100.0 %
Test CRC 0C2F497D
Copy CRC 0C2F497D
Track not present in AccurateRip database
Copy OK

Track 11

Filename F:\alexbras\1975 Jimmy Johnson - Ma Bea's Rock (2001 Storyville STCD 8050)\11 Got A Mind To Travel.wav

Pre-gap length 0:00:03.00

Peak level 54.6 %
Extraction speed 4.6 X
Track quality 100.0 %
Test CRC E85629FE
Copy CRC E85629FE
Track not present in AccurateRip database
Copy OK

Track 12

Filename F:\alexbras\1975 Jimmy Johnson - Ma Bea's Rock (2001 Storyville STCD 8050)\12 Can You Use A Man Like Me.wav

Pre-gap length 0:00:03.00

Peak level 54.1 %
Extraction speed 4.6 X
Track quality 100.0 %
Test CRC 612C3488
Copy CRC 612C3488
Track not present in AccurateRip database
Copy OK

Track 13

Filename F:\alexbras\1975 Jimmy Johnson - Ma Bea's Rock (2001 Storyville STCD 8050)\13 I Got To Be Crazy.wav

Pre-gap length 0:00:03.00

Peak level 57.5 %
Extraction speed 4.8 X
Track quality 100.0 %
Test CRC FE381634
Copy CRC FE381634
Track not present in AccurateRip database
Copy OK

Track 14

Filename F:\alexbras\1975 Jimmy Johnson - Ma Bea's Rock (2001 Storyville STCD 8050)\14 Got Papers On Your Baby.wav

Pre-gap length 0:00:03.00

Peak level 100.0 %
Extraction speed 4.2 X
Track quality 99.9 %
Test CRC D216C288
Copy CRC D216C288
Track not present in AccurateRip database
Copy OK


None of the tracks are present in the AccurateRip database

No errors occurred

End of status report

==== Log checksum 558E686FB20ED57C5BAA10208AFAEF5FDBCED53EECE8132D88294FFEEC93C50E ====

Jimmy Johnson & Luther Johnson Jr. - Ma Bea's Rock (1975) {2001, Reissue}


All thanks go to alex1248

>>> My Blog <<<

DOWNLOAD: