Subcategories

Jimmy LaFave - Favorites 1992-2001 (2010)

Posted By: popsakov
Jimmy LaFave - Favorites 1992-2001 (2010)

Jimmy LaFave - Favorites 1992-2001 (2010)
EAC Rip | FLAC (Tracks) + Cue + m3u8 + Log ~ 469 Mb | MP3 CBR320 ~ 175 Mb
Full Scans ~ 60 Mb | RAR 5% Recovery
Folk Rock / Alternative Country / Indie Rock / Americana
Music Road Records #MRR CD 009

The attraction of singer-songwriter Jimmy LaFave's music lies in his voice and vision that strikes responsive chords at the heart of folk, blues and American rock & roll. Jimmy's latest album, Favorites 1992-2001, is a collection of songs from his days on Bohemia Beat Records. It includes cuts from all six records as well as three newly recorded versions of songs he wrote during that time period.

***************

Jimmy LaFave - Favorites 1992-2001 (2010)

Track List:

01. Desperate Men Do Desperate Things [4:27]
02. Going Home [5:05]
03. Rock and Roll Music to the World [3:34]
04. Only One Angel [5:12]
05. Burden to Bear [3:40]
06. Never Is a Moment [5:16]
07. Sweetheart Like You [4:48]
08. How It Must Remain [3:57]
09. Austin After Midnight [4:15]
10. When It Starts to Rain [4:06]
11. Buffalo Return to the Plains [4:09]
12. On a Bus to St. Cloud [5:48]
13. When I See You Again [4:12]
14. Walk Away Renee [0:00]
15. Into Your Life [5:02]
16. Measuring Words [4:15]

Exact Audio Copy V1.3 from 2. September 2016

EAC extraction logfile from 21. January 2019, 0:49

Jimmy LaFave / Favorites 1992 - 2001

Used drive : ASUS BW-12D1S-U Adapter: 1 ID: 1

Read mode : Secure
Utilize accurate stream : Yes
Defeat audio cache : Yes
Make use of C2 pointers : No

Read offset correction : 667
Overread into Lead-In and Lead-Out : No
Fill up missing offset samples with silence : Yes
Delete leading and trailing silent blocks : No
Null samples used in CRC calculations : Yes
Used interface : Native Win32 interface for Win NT & 2000
Gap handling : Appended to previous track

Used output format : User Defined Encoder
Selected bitrate : 1024 kBit/s
Quality : High
Add ID3 tag : No
Command line compressor : C:\Program Files (x86)\Exact Audio Copy\FLAC\FLAC.EXE
Additional command line options : -V -8 -T "Genre=%genre%" -T "Artist=%artist%" -T "Title=%title%" -T "Album=%albumtitle%" -T "Date=%year%" -T "Tracknumber=%tracknr%" -T "Comment=%comment%" %source%


TOC of the extracted CD

Track | Start | Length | Start sector | End sector
––––––––––––––––––––––––––––-
1 | 0:00.00 | 4:27.00 | 0 | 20024
2 | 4:27.00 | 5:05.29 | 20025 | 42928
3 | 9:32.29 | 3:33.58 | 42929 | 58961
4 | 13:06.12 | 5:11.64 | 58962 | 82350
5 | 18:18.01 | 3:39.62 | 82351 | 98837
6 | 21:57.63 | 5:16.17 | 98838 | 122554
7 | 27:14.05 | 4:48.04 | 122555 | 144158
8 | 32:02.09 | 3:56.56 | 144159 | 161914
9 | 35:58.65 | 4:15.16 | 161915 | 181055
10 | 40:14.06 | 4:05.69 | 181056 | 199499
11 | 44:20.00 | 4:08.56 | 199500 | 218155
12 | 48:28.56 | 5:48.33 | 218156 | 244288
13 | 54:17.14 | 4:12.21 | 244289 | 263209
14 | 58:29.35 | 4:47.11 | 263210 | 284745
15 | 63:16.46 | 5:02.13 | 284746 | 307408
16 | 68:18.59 | 4:15.28 | 307409 | 326561


Track 1

Filename E:\Torrents of Autumn\LaFave, Jimmy [2010] Favorites 1992 - 2001\01. Desperate Men Do Desperate Things.wav

Pre-gap length 0:00:02.00

Peak level 100.0 %
Extraction speed 4.7 X
Track quality 100.0 %
Test CRC BDC07F9E
Copy CRC BDC07F9E
Accurately ripped (confidence 1) [0088D3B1] (AR v2)
Copy OK

Track 2

Filename E:\Torrents of Autumn\LaFave, Jimmy [2010] Favorites 1992 - 2001\02. Going Home.wav

Peak level 100.0 %
Extraction speed 5.3 X
Track quality 100.0 %
Test CRC 89FBA8F2
Copy CRC 89FBA8F2
Accurately ripped (confidence 1) [92EE9260] (AR v2)
Copy OK

Track 3

Filename E:\Torrents of Autumn\LaFave, Jimmy [2010] Favorites 1992 - 2001\03. Rock and Roll Music to the World.wav

Peak level 100.0 %
Extraction speed 4.8 X
Track quality 99.9 %
Test CRC D771668B
Copy CRC D771668B
Accurately ripped (confidence 1) [64568CDE] (AR v2)
Copy OK

Track 4

Filename E:\Torrents of Autumn\LaFave, Jimmy [2010] Favorites 1992 - 2001\04. Only One Angel.wav

Peak level 100.0 %
Extraction speed 6.1 X
Track quality 100.0 %
Test CRC 23B001EF
Copy CRC 23B001EF
Accurately ripped (confidence 1) [531C8921] (AR v2)
Copy OK

Track 5

Filename E:\Torrents of Autumn\LaFave, Jimmy [2010] Favorites 1992 - 2001\05. Burden to Bear.wav

Peak level 100.0 %
Extraction speed 6.2 X
Track quality 100.0 %
Test CRC 67A36D98
Copy CRC 67A36D98
Accurately ripped (confidence 1) [748DD2E7] (AR v2)
Copy OK

Track 6

Filename E:\Torrents of Autumn\LaFave, Jimmy [2010] Favorites 1992 - 2001\06. Never Is a Moment.wav

Peak level 98.0 %
Extraction speed 6.8 X
Track quality 100.0 %
Test CRC 597612B3
Copy CRC 597612B3
Accurately ripped (confidence 1) [4515BE8F] (AR v2)
Copy OK

Track 7

Filename E:\Torrents of Autumn\LaFave, Jimmy [2010] Favorites 1992 - 2001\07. Sweetheart Like You.wav

Peak level 100.0 %
Extraction speed 7.1 X
Track quality 100.0 %
Test CRC 1D6F85FB
Copy CRC 1D6F85FB
Accurately ripped (confidence 1) [720637FE] (AR v2)
Copy OK

Track 8

Filename E:\Torrents of Autumn\LaFave, Jimmy [2010] Favorites 1992 - 2001\08. How It Must Remain.wav

Peak level 100.0 %
Extraction speed 7.1 X
Track quality 100.0 %
Test CRC BA1E6382
Copy CRC BA1E6382
Accurately ripped (confidence 1) [57243D6C] (AR v2)
Copy OK

Track 9

Filename E:\Torrents of Autumn\LaFave, Jimmy [2010] Favorites 1992 - 2001\09. Austin After Midnight.wav

Peak level 100.0 %
Extraction speed 7.4 X
Track quality 100.0 %
Test CRC 2DA8F29D
Copy CRC 2DA8F29D
Accurately ripped (confidence 1) [F848223D] (AR v2)
Copy OK

Track 10

Filename E:\Torrents of Autumn\LaFave, Jimmy [2010] Favorites 1992 - 2001\10. When It Starts to Rain.wav

Peak level 99.0 %
Extraction speed 7.6 X
Track quality 100.0 %
Test CRC 43C4AC18
Copy CRC 43C4AC18
Accurately ripped (confidence 1) [1655F865] (AR v2)
Copy OK

Track 11

Filename E:\Torrents of Autumn\LaFave, Jimmy [2010] Favorites 1992 - 2001\11. Buffalo Return to the Plains.wav

Peak level 100.0 %
Extraction speed 7.7 X
Track quality 100.0 %
Test CRC BA839C51
Copy CRC BA839C51
Accurately ripped (confidence 1) [F7CDF039] (AR v2)
Copy OK

Track 12

Filename E:\Torrents of Autumn\LaFave, Jimmy [2010] Favorites 1992 - 2001\12. On a Bus to St. Cloud.wav

Peak level 100.0 %
Extraction speed 8.3 X
Track quality 100.0 %
Test CRC 69785365
Copy CRC 69785365
Accurately ripped (confidence 1) [61AA21B4] (AR v2)
Copy OK

Track 13

Filename E:\Torrents of Autumn\LaFave, Jimmy [2010] Favorites 1992 - 2001\13. When I See You Again.wav

Peak level 100.0 %
Extraction speed 8.3 X
Track quality 100.0 %
Test CRC 83129ED0
Copy CRC 83129ED0
Accurately ripped (confidence 1) [EBF22848] (AR v2)
Copy OK

Track 14

Filename E:\Torrents of Autumn\LaFave, Jimmy [2010] Favorites 1992 - 2001\14. Walk Away Renée.wav

Peak level 100.0 %
Extraction speed 7.7 X
Track quality 99.9 %
Test CRC 6C09A111
Copy CRC 6C09A111
Accurately ripped (confidence 1) [0F3A5A8F] (AR v2)
Copy OK

Track 15

Filename E:\Torrents of Autumn\LaFave, Jimmy [2010] Favorites 1992 - 2001\15. Into Your Life.wav

Peak level 100.0 %
Extraction speed 8.8 X
Track quality 100.0 %
Test CRC 3E8A6B68
Copy CRC 3E8A6B68
Accurately ripped (confidence 1) [B6F48C41] (AR v2)
Copy OK

Track 16

Filename E:\Torrents of Autumn\LaFave, Jimmy [2010] Favorites 1992 - 2001\16. Measuring Words.wav

Peak level 100.0 %
Extraction speed 8.8 X
Track quality 100.0 %
Test CRC B4EB4167
Copy CRC B4EB4167
Accurately ripped (confidence 1) [88272EAC] (AR v2)
Copy OK


All tracks accurately ripped

No errors occurred

End of status report

–– CUETools DB Plugin V2.1.6

[CTDB TOCID: 1leV9q9E7f79.24ZlhWdlULqJKg-] found
Submit result: 1leV9q9E7f79.24ZlhWdlULqJKg- has been confirmed
Track | CTDB Status
1 | (2/2) Accurately ripped
2 | (2/2) Accurately ripped
3 | (2/2) Accurately ripped
4 | (2/2) Accurately ripped
5 | (2/2) Accurately ripped
6 | (2/2) Accurately ripped
7 | (2/2) Accurately ripped
8 | (2/2) Accurately ripped
9 | (2/2) Accurately ripped
10 | (2/2) Accurately ripped
11 | (2/2) Accurately ripped
12 | (2/2) Accurately ripped
13 | (2/2) Accurately ripped
14 | (2/2) Accurately ripped
15 | (2/2) Accurately ripped
16 | (2/2) Accurately ripped


==== Log checksum 4CA3D71C1A8FFA458B7779CCF59C811CB8A33740A47D441D05E9812FC463C476 ====

Jimmy LaFave - Favorites 1992-2001 (2010)