Subcategories

Jimmy Webb & America - The Last Unicorn: Original Soundtrack (1982)

Posted By: Designol
Jimmy Webb & America - The Last Unicorn: Original Soundtrack (1982)

Jimmy Webb & America - The Last Unicorn: Original Soundtrack (1982)
EAC | FLAC | Tracks (Cue&Log) ~ 244 Mb (incl 5%) | Mp3 (CBR320) ~ 110 Mb (incl 5%) | Scans included
Genre: Soundtrack, Score, Pop/Rock | Label: Virgin | # 610 388-222 | Time: 00:38:27

This soundtrack to the popular 1982 animated film based on the acclaimed children's book by Peter Beagle was scored by songwriter/composer Jimmy Webb ("Wichita Lineman," "MacArthur Park") and features performances from the soft rock duo America. The score itself, an appropriately somber and sentimental blend of fairy tale motifs and dark, Wagnerian cues, reflects the story's achingly beautiful tale of a unicorn who attempts to overthrow a maniacal king determined to rid the world of the magical creatures, while the songs are far more creative, daring, and eloquent than all of the cookie-cutter balladry that would eventually replace their type in future animated films. Like Watership Down, The Hobbit, and even Robert Altman's live action, Harry Nilsson-scored Popeye, this hard to find soundtrack is a gem from another age.

Review by James Christopher Monger, Allmusic.com

Jimmy Webb at Allmusic
Jimmy Webb Website
Jimmy Webb at Wiki

Film at IMDB
Film at Wiki

Tracklist:

01. America - The Last Unicorn (03:10)
02. America - Man's Road (03:24)
03. America - In the Sea (03:18)
04. Katie Irving - Now That I'm a Woman (02:43)
05. Jeff Bridges & Katie Irving - That's All I've Got to Say (02:47)
06. America - The Last Unicorn Part 2 (03:09)
07. London Symphony Orchestra - Forest Awakens (02:11)
08. London Symphony Orchestra - Red Soup (00:33)
09. London Symphony Orchestra - Red Bull Attacks (03:36)
10. London Symphony Orchestra - The Cat (01:41)
11. London Symphony Orchestra - The Tree (01:23)
12. London Symphony Orchestra - Haggard's Unicorns (02:13)
13. London Symphony Orchestra - Bull-Unicorn-Woman (02:48)
14. London Symphony Orchestra - Unicorns in the Sea (01:54)
15. London Symphony Orchestra & America - Unicorn and Lir (03:29)


Exact Audio Copy V1.3 from 2. September 2016

EAC extraction logfile from 19. December 2016, 20:00

Jimmy Webb / The Last Unicorn

Used drive : PLEXTOR CD-R PX-230A Adapter: 1 ID: 0

Read mode : Secure
Utilize accurate stream : Yes
Defeat audio cache : Yes
Make use of C2 pointers : No

Read offset correction : 738
Overread into Lead-In and Lead-Out : No
Fill up missing offset samples with silence : Yes
Delete leading and trailing silent blocks : No
Null samples used in CRC calculations : Yes
Used interface : Native Win32 interface for Win NT & 2000
Gap handling : Appended to previous track

Used output format : User Defined Encoder
Selected bitrate : 1024 kBit/s
Quality : High
Add ID3 tag : No
Command line compressor : C:\Program Files\Exact Audio Copy\Flac\flac.exe
Additional command line options : -6 -V -T "ARTIST=%artist%" -T "TITLE=%title%" -T "ALBUM=%albumtitle%" -T "DATE=%year%" -T "TRACKNUMBER=%tracknr%" -T "GENRE=%genre%" -T "COMMENT=%comment%" -T "ALBUMARTIST=%albuminterpret%" -T "COMPOSER=%composer%" -T "DISCNUMBER=%cdnumber%" -T "TOTALDISCS=%totalcds%" -T "TOTALTRACKS=%numtracks%" %source% -o %dest%


TOC of the extracted CD

Track | Start | Length | Start sector | End sector
––––––––––––––––––––––––––––-
1 | 0:00.33 | 3:10.50 | 33 | 14332
2 | 3:11.08 | 3:24.00 | 14333 | 29632
3 | 6:35.08 | 3:18.50 | 29633 | 44532
4 | 9:53.58 | 2:43.35 | 44533 | 56792
5 | 12:37.18 | 2:47.02 | 56793 | 69319
6 | 15:24.20 | 3:09.60 | 69320 | 83554
7 | 18:34.05 | 2:11.53 | 83555 | 93432
8 | 20:45.58 | 0:33.50 | 93433 | 95957
9 | 21:19.33 | 3:36.62 | 95958 | 112219
10 | 24:56.20 | 1:41.28 | 112220 | 119822
11 | 26:37.48 | 1:23.10 | 119823 | 126057
12 | 28:00.58 | 2:13.25 | 126058 | 136057
13 | 30:14.08 | 2:48.50 | 136058 | 148707
14 | 33:02.58 | 1:54.50 | 148708 | 157307
15 | 34:57.33 | 3:29.32 | 157308 | 173014


Track 1

Filename C:\Music\01 - America - The Last Unicorn.wav

Pre-gap length 0:00:02.33

Peak level 99.5 %
Extraction speed 5.0 X
Track quality 100.0 %
Test CRC F3A51B1E
Copy CRC F3A51B1E
Accurately ripped (confidence 27) [1158F5F9] (AR v2)
Copy OK

Track 2

Filename C:\Music\02 - America - Man's Road.wav

Pre-gap length 0:00:01.13

Peak level 63.0 %
Extraction speed 4.1 X
Track quality 100.0 %
Test CRC 4C5AEFD3
Copy CRC 4C5AEFD3
Accurately ripped (confidence 27) [35B004DC] (AR v2)
Copy OK

Track 3

Filename C:\Music\03 - America - In the Sea.wav

Pre-gap length 0:00:01.30

Peak level 82.8 %
Extraction speed 5.2 X
Track quality 100.0 %
Test CRC D86FA3BA
Copy CRC D86FA3BA
Accurately ripped (confidence 27) [9AD7F61B] (AR v2)
Copy OK

Track 4

Filename C:\Music\04 - Katie Irving - Now That I'm a Woman.wav

Pre-gap length 0:00:01.30

Peak level 89.6 %
Extraction speed 5.1 X
Track quality 100.0 %
Test CRC 8949E7DB
Copy CRC 8949E7DB
Accurately ripped (confidence 27) [8469574F] (AR v2)
Copy OK

Track 5

Filename C:\Music\05 - Jeff Bridges & Katie Irving - That's All I've Got to Say.wav

Pre-gap length 0:00:01.10

Peak level 86.2 %
Extraction speed 4.8 X
Track quality 100.0 %
Test CRC 9638F45A
Copy CRC 9638F45A
Accurately ripped (confidence 27) [443EC605] (AR v2)
Copy OK

Track 6

Filename C:\Music\06 - America - The Last Unicorn Part 2.wav

Pre-gap length 0:00:01.37

Peak level 85.9 %
Extraction speed 4.8 X
Track quality 100.0 %
Test CRC A087C4D9
Copy CRC A087C4D9
Accurately ripped (confidence 27) [4BC99727] (AR v2)
Copy OK

Track 7

Filename C:\Music\07 - London Symphony Orchestra - Forest Awakens.wav

Pre-gap length 0:00:01.60

Peak level 85.4 %
Extraction speed 3.7 X
Track quality 100.0 %
Test CRC 55B9B18E
Copy CRC 55B9B18E
Accurately ripped (confidence 27) [F7D6E3D7] (AR v2)
Copy OK

Track 8

Filename C:\Music\08 - London Symphony Orchestra - Red Soup.wav

Pre-gap length 0:00:01.00

Peak level 67.1 %
Extraction speed 2.9 X
Track quality 100.0 %
Test CRC E0F65CAE
Copy CRC E0F65CAE
Accurately ripped (confidence 27) [BD3E20EE] (AR v2)
Copy OK

Track 9

Filename C:\Music\09 - London Symphony Orchestra - Red Bull Attacks.wav

Pre-gap length 0:00:00.63

Peak level 71.8 %
Extraction speed 3.7 X
Track quality 100.0 %
Test CRC 918CDC23
Copy CRC 918CDC23
Accurately ripped (confidence 27) [21DBEB94] (AR v2)
Copy OK

Track 10

Filename C:\Music\10 - London Symphony Orchestra - The Cat.wav

Pre-gap length 0:00:01.25

Peak level 17.9 %
Extraction speed 3.8 X
Track quality 100.0 %
Test CRC E3ED4220
Copy CRC E3ED4220
Accurately ripped (confidence 26) [E26001C6] (AR v2)
Copy OK

Track 11

Filename C:\Music\11 - London Symphony Orchestra - The Tree.wav

Pre-gap length 0:00:00.53

Peak level 67.6 %
Extraction speed 3.3 X
Track quality 100.0 %
Test CRC 857ACCF2
Copy CRC 857ACCF2
Accurately ripped (confidence 27) [6ED921B5] (AR v2)
Copy OK

Track 12

Filename C:\Music\12 - London Symphony Orchestra - Haggard's Unicorns.wav

Pre-gap length 0:00:01.45

Peak level 71.4 %
Extraction speed 4.3 X
Track quality 100.0 %
Test CRC 8E242231
Copy CRC 8E242231
Accurately ripped (confidence 27) [B3FE47B9] (AR v2)
Copy OK

Track 13

Filename C:\Music\13 - London Symphony Orchestra - Bull-Unicorn-Woman.wav

Pre-gap length 0:00:01.00

Peak level 61.6 %
Extraction speed 3.6 X
Track quality 99.9 %
Test CRC 52EB2525
Copy CRC 52EB2525
Accurately ripped (confidence 27) [83083BB0] (AR v2)
Copy OK

Track 14

Filename C:\Music\14 - London Symphony Orchestra - Unicorns in the Sea.wav

Pre-gap length 0:00:00.38

Peak level 87.9 %
Extraction speed 3.8 X
Track quality 100.0 %
Test CRC 7B8343B6
Copy CRC 7B8343B6
Accurately ripped (confidence 27) [37BC41EC] (AR v2)
Copy OK

Track 15

Filename C:\Music\15 - London Symphony Orchestra & America - Unicorn and Lir.wav

Pre-gap length 0:00:01.00

Peak level 82.1 %
Extraction speed 4.4 X
Track quality 100.0 %
Test CRC 2745BBA6
Copy CRC 2745BBA6
Accurately ripped (confidence 26) [75F4655F] (AR v2)
Copy OK


All tracks accurately ripped

No errors occurred

End of status report

–– CUETools DB Plugin V2.1.6

[CTDB TOCID: T9fgy7kQp8WcW9IJo.LTbLHDshc-] found
Submit result: T9fgy7kQp8WcW9IJo.LTbLHDshc- has been confirmed
Track | CTDB Status
1 | (104/108) Accurately ripped
2 | (103/108) Accurately ripped
3 | (103/108) Accurately ripped
4 | (104/108) Accurately ripped
5 | (105/108) Accurately ripped
6 | (105/108) Accurately ripped
7 | (106/108) Accurately ripped
8 | (106/108) Accurately ripped
9 | (104/108) Accurately ripped
10 | (106/108) Accurately ripped
11 | (105/108) Accurately ripped
12 | (106/108) Accurately ripped
13 | (106/108) Accurately ripped
14 | (105/108) Accurately ripped
15 | (106/108) Accurately ripped


==== Log checksum 38549EFAE03840B906327095C73D59E78AD561904E9B00397B9DF90EFB0183F5 ====

foobar2000 1.2 / Dynamic Range Meter 1.1.1
log date: 2016-12-20 16:24:38

––––––––––––––––––––––––––––––––––––––––
Analyzed: America / The Last Unicorn (1-4)
Jeff Bridges & Katie Irving / The Last Unicorn (5)
Katie Irving / The Last Unicorn (6)
London Symphony Orchestra & America / The Last Unicorn (7)
London Symphony Orchestra / The Last Unicorn (8-15)
––––––––––––––––––––––––––––––––––––––––

DR Peak RMS Duration Track
––––––––––––––––––––––––––––––––––––––––
DR13 -0.04 dB -18.81 dB 3:11 01-The Last Unicorn
DR11 -4.00 dB -18.87 dB 3:24 02-Man's Road
DR11 -1.64 dB -16.44 dB 3:19 03-In the Sea
DR11 -1.31 dB -17.59 dB 3:10 06-The Last Unicorn Part 2
DR12 -1.28 dB -16.25 dB 2:47 05-That's All I've Got to Say
DR10 -0.95 dB -15.78 dB 2:43 04-Now That I'm a Woman
DR12 -1.71 dB -17.67 dB 3:29 15-Unicorn and Lir
DR11 -1.37 dB -18.64 dB 2:12 07-Forest Awakens
DR10 -3.46 dB -19.12 dB 0:34 08-Red Soup
DR11 -2.87 dB -16.70 dB 3:37 09-Red Bull Attacks
DR12 -14.92 dB -30.56 dB 1:41 10-The Cat
DR13 -3.39 dB -21.82 dB 1:23 11-The Tree
DR12 -2.92 dB -19.61 dB 2:13 12-Haggard's Unicorns
DR11 -4.20 dB -18.75 dB 2:49 13-Bull-Unicorn-Woman
DR10 -1.12 dB -14.92 dB 1:55 14-Unicorns in the Sea
––––––––––––––––––––––––––––––––––––––––

Number of tracks: 15
Official DR value: DR11

Samplerate: 44100 Hz
Channels: 2
Bits per sample: 16
Bitrate: 812 kbps
Codec: FLAC
================================================================================

Jimmy Webb & America - The Last Unicorn: Original Soundtrack (1982)

Jimmy Webb & America - The Last Unicorn: Original Soundtrack (1982)

All thanks to original releaser - Filex777

More interesting music in My Blog