Subcategories

Jimmy Haslip featuring Joe Vannelli - NightFall (2010)

Posted By: tiburon
Jimmy Haslip featuring Joe Vannelli - NightFall (2010)

Jimmy Haslip featuring Joe Vannelli - NightFall (2010)
EAC 1.0b1 | FLAC tracks level 8 | Cue+Log+M3U+MD5 | Full Scans 300dpi | 315MB + 5% Recovery
Genre: Fusion

On Nightfall, Haslip’s first solo album since 2000’s Red Heat, he’s joined by keyboardist and producer Joe Vannelli for a set of heavily textured tracks characterized by multilayered keys and synths and programmed drums and percussion. Haslip’s awe-inspiring bass chops are amply on display.
Track List
01. Empath 5:51
02. Xango 5:17
03. Casa De Oro 5:59
04. The Third Man 4:49
05. Nightfall 6:09
06. Palo Alto 4:33
07. Red Coral 5:33
08. Deep Waters 5:18
09. On Sunday 4:32

musicians
Jimmy Haslip - electric bass, synth bass, baritone guitar, synthesizers, programming
Joe Vannelli - piano, Rhodes, synthesizers, organ, programming
Bob Mintzer - tenor saxophone
Steve Tavaglione - alto and soprano saxophones
Jason Hann - congas, percussion, bongos, talking drum
Wayne Bergeron - trumpet
Jimmy Branley - tmbales, bongos
Roger Burn - vibraphone
Stella Castellucci - harp on track 5
Katisse Buckingham - alto flute on track 6
Judd Miller - EVI on tracks 7, 8
Ross Vannelli - acoustic guitar on track 8
Lori Perry - lead vocal on track 8
The Perry Sisters: Sharon Perry, Carolyn Perry, Darlene Perry, Lori Perry - backgr. vocals on track 8

Produced by Joe Vanelli and Jimmy Haslip


Exact Audio Copy V1.0 beta 1 from 15. November 2010

EAC extraction logfile from 7. April 2012, 10:04

Jimmy Haslip & Joe Vannelli / Nightfall

Used drive : HL-DT-STDVDRAM GH20NS10 Adapter: 2 ID: 1

Read mode : Secure
Utilize accurate stream : Yes
Defeat audio cache : Yes
Make use of C2 pointers : No

Read offset correction : 667
Overread into Lead-In and Lead-Out : No
Fill up missing offset samples with silence : Yes
Delete leading and trailing silent blocks : No
Null samples used in CRC calculations : Yes
Used interface : Native Win32 interface for Win NT & 2000
Gap handling : Appended to previous track

Used output format : User Defined Encoder
Selected bitrate : 1024 kBit/s
Quality : High
Add ID3 tag : No
Command line compressor : C:\Program Files\Exact Audio Copy\Flac\flac.exe
Additional command line options : -8 -V -T "ARTIST=%a" -T "TITLE=%t" -T "ALBUM=%g" -T "DATE=%y" -T "TRACKNUMBER=%n" -T "TOTALTRACKS=%x" -T "GENRE=%m" -T "ALBUMARTIST=%v" -T "ALBUM ARTIST=%v" -T "COMMENT=EAC Secure Mode, Test & Copy, AccurateRip, FLAC -8" %s


TOC of the extracted CD

Track | Start | Length | Start sector | End sector
––––––––––––––––––––––––––––-
1 | 0:00.00 | 5:52.22 | 0 | 26421
2 | 5:52.22 | 5:17.03 | 26422 | 50199
3 | 11:09.25 | 5:59.17 | 50200 | 77141
4 | 17:08.42 | 4:49.17 | 77142 | 98833
5 | 21:57.59 | 6:09.07 | 98834 | 126515
6 | 28:06.66 | 4:33.34 | 126516 | 147024
7 | 32:40.25 | 5:33.00 | 147025 | 171999
8 | 38:13.25 | 5:19.27 | 172000 | 195951
9 | 43:32.52 | 4:32.26 | 195952 | 216377


Track 1

Filename D:\Jimmy Haslip & Joe Vannelli - Nightfall (2010)\01 - Empath.wav

Pre-gap length 0:00:02.00

Peak level 98.8 %
Extraction speed 4.4 X
Track quality 99.9 %
Test CRC 08821971
Copy CRC 08821971
Track not present in AccurateRip database
Copy OK

Track 2

Filename D:\Jimmy Haslip & Joe Vannelli - Nightfall (2010)\02 - Xango.wav

Pre-gap length 0:00:01.00

Peak level 98.8 %
Extraction speed 5.7 X
Track quality 100.0 %
Test CRC D9F26664
Copy CRC D9F26664
Track not present in AccurateRip database
Copy OK

Track 3

Filename D:\Jimmy Haslip & Joe Vannelli - Nightfall (2010)\03 - Casa De Oro.wav

Pre-gap length 0:00:00.18

Peak level 98.8 %
Extraction speed 6.4 X
Track quality 100.0 %
Test CRC 187C4D18
Copy CRC 187C4D18
Track not present in AccurateRip database
Copy OK

Track 4

Filename D:\Jimmy Haslip & Joe Vannelli - Nightfall (2010)\04 - The Third Man.wav

Pre-gap length 0:00:00.38

Peak level 98.8 %
Extraction speed 5.8 X
Track quality 99.9 %
Test CRC 9B270053
Copy CRC 9B270053
Track not present in AccurateRip database
Copy OK

Track 5

Filename D:\Jimmy Haslip & Joe Vannelli - Nightfall (2010)\05 - Nightfall.wav

Pre-gap length 0:00:01.03

Peak level 98.8 %
Extraction speed 6.3 X
Track quality 100.0 %
Test CRC 229F521D
Copy CRC 229F521D
Track not present in AccurateRip database
Copy OK

Track 6

Filename D:\Jimmy Haslip & Joe Vannelli - Nightfall (2010)\06 - Palo Alto.wav

Pre-gap length 0:00:00.46

Peak level 98.8 %
Extraction speed 7.6 X
Track quality 100.0 %
Test CRC 5141947E
Copy CRC 5141947E
Track not present in AccurateRip database
Copy OK

Track 7

Filename D:\Jimmy Haslip & Joe Vannelli - Nightfall (2010)\07 - Red Coral.wav

Pre-gap length 0:00:00.37

Peak level 98.8 %
Extraction speed 7.8 X
Track quality 100.0 %
Test CRC F6E18365
Copy CRC F6E18365
Track not present in AccurateRip database
Copy OK

Track 8

Filename D:\Jimmy Haslip & Joe Vannelli - Nightfall (2010)\08 - Deep Waters.wav

Pre-gap length 0:00:00.74

Peak level 98.8 %
Extraction speed 7.9 X
Track quality 100.0 %
Test CRC B6E9A044
Copy CRC B6E9A044
Track not present in AccurateRip database
Copy OK

Track 9

Filename D:\Jimmy Haslip & Joe Vannelli - Nightfall (2010)\09 - On Sunday.wav

Pre-gap length 0:00:00.74

Peak level 98.8 %
Extraction speed 7.3 X
Track quality 99.9 %
Test CRC 82D88E2F
Copy CRC 82D88E2F
Track not present in AccurateRip database
Copy OK


None of the tracks are present in the AccurateRip database

No errors occurred

End of status report

==== Log checksum D5CB1B22FA1F597EE99B78B34D39B633699A85332C78F5C1AD796C74EF12E1C8 ====


––––––––––––––––––––––––––––––––––––––––
Analyzed: Jimmy Haslip & Joe Vannelli / Nightfall
––––––––––––––––––––––––––––––––––––––––

DR Peak RMS Duration Track
––––––––––––––––––––––––––––––––––––––––
DR11 -0.10 dB -12.70 dB 5:52 01-Empath
DR9 -0.10 dB -11.24 dB 5:17 02-Xango
DR9 -0.10 dB -10.69 dB 5:59 03-Casa De Oro
DR9 -0.10 dB -11.59 dB 4:49 04-The Third Man
DR11 -0.10 dB -14.14 dB 6:09 05-Nightfall
DR10 -0.10 dB -11.90 dB 4:33 06-Palo Alto
DR8 -0.10 dB -9.76 dB 5:33 07-Red Coral
DR7 -0.10 dB -10.38 dB 5:19 08-Deep Waters
DR10 -0.10 dB -12.43 dB 4:32 09-On Sunday
––––––––––––––––––––––––––––––––––––––––

Number of tracks: 9
Official DR value: DR9

Samplerate: 44100 Hz
Channels: 2
Bits per sample: 16
Bitrate: 825 kbps
Codec: FLAC
================================================================================

Jimmy Haslip featuring Joe Vannelli - NightFall (2010)
Jimmy Haslip featuring Joe Vannelli - NightFall (2010)
Jimmy Haslip featuring Joe Vannelli - NightFall (2010)


Rip by tiburon