Jim Hall - Live! (1975) {2003 Verve Music Group} **[RE-UP]**

Posted By: TestTickles
Jim Hall - Live! (1975) {2003 Verve Music Group} **[RE-UP]**

Jim Hall - Live! (1975) {2003 Verve Music Group}
EAC Rip | FLAC with CUE and log | scans | 235 mb
MP3 CBR 320kbps | RAR | 105 mb
Genre: jazz

Live! is the 1975 album by Jim Hall. Originally released by Horizon/A&M, this is taken from a CD remaster by Verve Music Group released on 25 March, 2003.
Hall is the common link in several important reissues released within the last year. He has appeared on numerous sessions since the early Sixties and has been active to the present as a leader recording for Concord and Telarc, and in the New York club scene over the course of the last 20 years (check out the 1997 Telarc release Panorama, Live at the Village Vanguard). He is best in intimate settings and no recording exemplifies his artistry more concisely than Jim Hall Live featuring his long-standing trio including bassist Don Thompson and drummer Terry Clarke. Originally released on A&M Horizon in 1975, Jim Hall Live was recorded at Bourbon Street in Toronto. Like Miles Davis at The Plugged Nickel and Paul Desmond Live, the recording is pristine enough that you can hear the ice cubes in patron’s drinks. But it is the happy, focused playing from all involved that makes the date special. Hall says it best when asked about recording live in a club: " Let me count the whys - playing for the moment, joy, sense of humor, chance taking, stretching to reach your potential, and sometimes missing, playing to a receptive audience, and trust in the other musicians". He opens with Sinatra’s Angel Eyes in double time, dabbles in the harmonically rich Round Midnight, and quotes Charlie Parker in fact and in spirit in his classic Scrapple From the Apple. As critic Doug Ramsey raves, "He is a wizard, truly the only contemporary guitarist to be mentioned with Charlie Christian and Django Reinhardt."

Jim Hall - Live! (1975) {2003 Verve Music Group} **[RE-UP]**

1. Angel Eyes
2. 'Round Midnight
3. Scrapple From the Apple
4. The Way You Look Tonight
5. I Hear a Rhapsody

Jim Hall-guitar
Don Thompson-bass
Terry Clarke-drums

Recorded live at Bourbon Street, Toronto, Canada in June 1975

Mastered by Suha Gur at Universal Mastering Studios-East

EAC extraction logfile from 12. May 2006, 8:57 for CD
Jim Hall / Live!

Used drive : LITE-ON DVDRW SOHW-1633S Adapter: 0 ID: 0
Read mode : Secure with NO C2, accurate stream, disable cache
Read offset correction : 12
Overread into Lead-In and Lead-Out : No

Used output format : Internal WAV Routines
44.100 Hz; 16 Bit; Stereo

Other options :
Fill up missing offset samples with silence : Yes
Delete leading and trailing silent blocks : No
Installed external ASPI interface

Track 1
Filename D:\FLAC\Jim Hall - Live! (1975) [FLAC] {2003 Verve Music Group}\01 - Angel Eyes.wav

Pre-gap length 0:00:02.00

Peak level 86.3 %
Track quality 100.0 %
Test CRC 0B787B20
Copy CRC 0B787B20
Copy OK

Track 2
Filename D:\FLAC\Jim Hall - Live! (1975) [FLAC] {2003 Verve Music Group}\02 - 'Round Midnight.wav

Pre-gap length 0:00:03.52

Peak level 79.1 %
Track quality 100.0 %
Test CRC AFE49B42
Copy CRC AFE49B42
Copy OK

Track 3
Filename D:\FLAC\Jim Hall - Live! (1975) [FLAC] {2003 Verve Music Group}\03 - Scrapple From the Apple.wav

Pre-gap length 0:00:02.56

Peak level 81.3 %
Track quality 100.0 %
Test CRC 6D381566
Copy CRC 6D381566
Copy OK

Track 4
Filename D:\FLAC\Jim Hall - Live! (1975) [FLAC] {2003 Verve Music Group}\04 - The Way You Look Tonight.wav

Pre-gap length 0:00:03.82

Peak level 89.9 %
Track quality 100.0 %
Test CRC DEA1A811
Copy CRC DEA1A811
Copy OK

Track 5
Filename D:\FLAC\Jim Hall - Live! (1975) [FLAC] {2003 Verve Music Group}\05 - I Hear a Rhapsody.wav

Pre-gap length 0:00:03.80

Peak level 100.0 %
Track quality 100.0 %
Test CRC D10D133C
Copy CRC D10D133C
Copy OK

No errors occured

End of status report

Jim Hall - Live! (1975) {2003 Verve Music Group} **[RE-UP]**

Check out other titles in my blog.