Subcategories

Jim Hall/Ron Carter Duo - Alone Together (1972) {1990 OJC}

Posted By: TestTickles
Jim Hall/Ron Carter Duo - Alone Together (1972) {1990 OJC}

Jim Hall/Ron Carter Duo - Alone Together (1972) {1990 OJC}
EAC Rip | FLAC with CUE and log | scans | 183 mb
MP3 CBR 320kbps | RAR | 103 mb
Genre: jazz

Alone Together is the 1972 album by Jim Hall and Ron Carter, credited as the Jim Hall/Ron Carter Duo. Originally released on Milestones Records, this 1990 CD was released by Original Jazz Classics (OJC)/Fantasy Jazz.

Jim Hall/Ron Carter Duo - Alone Together (1972) {1990 OJC}

1. St. Thomas (4:44)
2. Alone Together (5:51)
3. Receipt, Please (4:59)
4. I'll Remember April (6:50)
5. Softly, As In A Morning Sunrise (2:52)
6. Whose Blues (5:54)
7. Prelude To A Kiss (5:50)
8. Autumn Leaves (6:54)

Jim Hall-guitar
Ron Carter-bass

Dick Katz-producer
David Jones-engineer
Elvin Campbell-remix

Remastered by Phil De Lancie
Supervised by Orrin Keepnews

Recorded live at the "Jazz Adventures" concert at the Playboy Club, New York City, August 4, 1972.
Digital Remastering, (Fantasy Studios, Berkeley).

Jim Hall/Ron Carter Duo - Alone Together (1972) {1990 OJC}


EAC extraction logfile from 11. December 2007, 13:55 for CD
Jim Hall/Ron Carter Duo / Alone Together

Used drive : HL-DT-STCDRW/DVD GCC4482 Adapter: 1 ID: 0
Read mode : Secure with NO C2, accurate stream, disable cache
Read offset correction : 6
Overread into Lead-In and Lead-Out : No

Used output format : C:\Eac\Codecs\flac.exe (User Defined Encoder)
320 kBit/s
Additional command line options : -8 -V -T "artist=%a" -T "title=%t" -T "album=%g" -T "date=%y" -T "tracknumber=%n" -T "genre=%m" -T "comment=EAC Flac 1.1.2 -8" %s

Other options :
Fill up missing offset samples with silence : Yes
Delete leading and trailing silent blocks : No
Installed external ASPI interface


Track 1
Filename C:\Documents and Settings\Jim Hall, Ron Carter Duo - Alone Together (1972) [FLAC]\01 - St. Thomas.wav

Pre-gap length 0:00:02.00

Peak level 81.9 %
Track quality 100.0 %
Test CRC B04E8D85
Copy CRC B04E8D85
Copy OK

Track 2
Filename C:\Documents and Settings\Jim Hall, Ron Carter Duo - Alone Together (1972) [FLAC]\02 - Alone Together.wav

Pre-gap length 0:00:03.09

Peak level 64.8 %
Track quality 100.0 %
Test CRC 129C92D1
Copy CRC 129C92D1
Copy OK

Track 3
Filename C:\Documents and Settings\Jim Hall, Ron Carter Duo - Alone Together (1972) [FLAC]\03 - Receipt, Please.wav

Pre-gap length 0:00:02.96

Peak level 93.4 %
Track quality 100.0 %
Test CRC DF291B74
Copy CRC DF291B74
Copy OK

Track 4
Filename C:\Documents and Settings\Jim Hall, Ron Carter Duo - Alone Together (1972) [FLAC]\04 - I'll Remember April.wav

Pre-gap length 0:00:02.66

Peak level 70.1 %
Track quality 100.0 %
Test CRC 689F395B
Copy CRC 689F395B
Copy OK

Track 5
Filename C:\Documents and Settings\Jim Hall, Ron Carter Duo - Alone Together (1972) [FLAC]\05 - Softly, As In A Morning Sunrise.wav

Pre-gap length 0:00:03.13

Peak level 68.1 %
Track quality 100.0 %
Test CRC 06BAFDF6
Copy CRC 06BAFDF6
Copy OK

Track 6
Filename C:\Documents and Settings\Jim Hall, Ron Carter Duo - Alone Together (1972) [FLAC]\06 - Whose Blues.wav

Pre-gap length 0:00:02.76

Peak level 62.9 %
Track quality 100.0 %
Test CRC B0A2681A
Copy CRC B0A2681A
Copy OK

Track 7
Filename C:\Documents and Settings\Jim Hall, Ron Carter Duo - Alone Together (1972) [FLAC]\07 - Prelude To A Kiss.wav

Pre-gap length 0:00:02.64

Peak level 94.1 %
Track quality 100.0 %
Test CRC 591C4893
Copy CRC 591C4893
Copy OK

Track 8
Filename C:\Documents and Settings\Jim Hall, Ron Carter Duo - Alone Together (1972) [FLAC]\08 - Autumn Leaves.wav

Pre-gap length 0:00:02.46

Peak level 60.6 %
Track quality 100.0 %
Test CRC AAC8CD54
Copy CRC AAC8CD54
Copy OK

No errors occured


End of status report
NITROFLARE (FLAC)
NITROFLARE (MP3)