Subcategories

Jimmy McGriff - Electric Funk (1969) {1997 Blue Note}

Posted By: TestTickles
Jimmy McGriff - Electric Funk (1969) {1997 Blue Note}

Jimmy McGriff - Electric Funk (1969) {1997 Blue Note}
EAC Rip | FLAC with CUE and log | scans | 219 mb
MP3 CBR 320kbps | RAR | 87 mb
Genre: jazz

Electric Funk is the 1969 Blue Note album by organist Jimmy McGriff. This was remastered by Ron McMaster and released in 1997 on CD.

Jimmy McGriff - Electric Funk (1969) {1997 Blue Note}

1 Back On The Track
2 Chris Cross
3 Miss Poopie
4 The Bird Wave
5 Spear For Moondog, Part 1
6 Spear For Moondog, Part 2
7 Tight Times
8 Spinning Wheel
9 Funky Junk

Jimmy McGriff-Organ
Horace Ott-Piano & Arrangements

The CD has the legend "Others Unknown", but according to a few sources on the web, some believe that Blue Mitchell (trumpet) and Stanley Turrentine (tenor sax) also play on the album. No word on who sits in on guitar, bass or drums. To my ears, the drums sound like that of Idris Muhammad, but one source claims it could be Bernard Purdie.
–-
Produced by Sonny Lester
Recorded in September 1969
Blue Note Rare Groove Series produced by Michael Cuscuna and Tom Evered
Mastering: Ron McMaster

Jimmy McGriff - Electric Funk (1969) {1997 Blue Note}


EAC extraction logfile from 24. September 2005, 8:28 for CD
Jimmy McGriff / Electric Funk

Used drive : LITE-ON DVDRW SOHW-1633S Adapter: 0 ID: 0
Read mode : Secure with NO C2, accurate stream, disable cache
Read offset correction : 12
Overread into Lead-In and Lead-Out : No

Used output format : Internal WAV Routines
44.100 Hz; 16 Bit; Stereo

Other options :
Fill up missing offset samples with silence : Yes
Delete leading and trailing silent blocks : No
Installed external ASPI interface


Track 1
Filename C:\FLAC\Jimmy McGriff - (1969) Electric Funk [FLAC]\01 - Back On The Track.wav

Pre-gap length 0:00:02.00

Peak level 87.8 %
Track quality 99.9 %
Test CRC 4ACC9EC7
Copy CRC 4ACC9EC7
Copy OK

Track 2
Filename C:\FLAC\Jimmy McGriff - (1969) Electric Funk [FLAC]\02 - Chris Cross.wav

Pre-gap length 0:00:01.37

Peak level 89.0 %
Track quality 100.0 %
Test CRC 9355516E
Copy CRC 9355516E
Copy OK

Track 3
Filename C:\FLAC\Jimmy McGriff - (1969) Electric Funk [FLAC]\03 - Miss Poopie.wav

Pre-gap length 0:00:01.36

Peak level 91.7 %
Track quality 100.0 %
Test CRC A1A35D5B
Copy CRC A1A35D5B
Copy OK

Track 4
Filename C:\FLAC\Jimmy McGriff - (1969) Electric Funk [FLAC]\04 - The Bird Wave.wav

Pre-gap length 0:00:01.55

Peak level 89.3 %
Track quality 100.0 %
Test CRC C84B84C6
Copy CRC C84B84C6
Copy OK

Track 5
Filename C:\FLAC\Jimmy McGriff - (1969) Electric Funk [FLAC]\05 - Spear For Moondog Part 1.wav

Pre-gap length 0:00:02.53

Peak level 88.9 %
Track quality 100.0 %
Test CRC 5F09C5C2
Copy CRC 5F09C5C2
Copy OK

Track 6
Filename C:\FLAC\Jimmy McGriff - (1969) Electric Funk [FLAC]\06 - Spear For Moondog Part 2.wav

Pre-gap length 0:00:02.05

Peak level 90.9 %
Track quality 100.0 %
Test CRC CFD37717
Copy CRC CFD37717
Copy OK

Track 7
Filename C:\FLAC\Jimmy McGriff - (1969) Electric Funk [FLAC]\07 - Tight Times.wav

Pre-gap length 0:00:02.03

Peak level 89.6 %
Track quality 100.0 %
Test CRC 952027D1
Copy CRC 952027D1
Copy OK

Track 8
Filename C:\FLAC\Jimmy McGriff - (1969) Electric Funk [FLAC]\08 - Spinning Wheel.wav

Pre-gap length 0:00:01.67

Peak level 89.1 %
Track quality 100.0 %
Test CRC BC5FCF59
Copy CRC BC5FCF59
Copy OK

Track 9
Filename C:\FLAC\Jimmy McGriff - (1969) Electric Funk [FLAC]\09 - Funky Junk.wav

Pre-gap length 0:00:01.48

Peak level 88.4 %
Track quality 99.9 %
Test CRC DFABE7CA
Copy CRC DFABE7CA
Copy OK

No errors occured


End of status report


Jimmy McGriff - Electric Funk (1969) {1997 Blue Note}
NITROFLARE (FLAC)
NITROFLARE (MP3)