Subcategories

Jo Yeong-wook - Oldboy (OST) (2003)

Posted By: gribovar
Jo Yeong-wook - Oldboy (OST) (2003)

Jo Yeong-wook - Oldboy (OST) (2003)
EAC Rip | FLAC (tracks+.cue+log) - 318 MB | MP3 CBR 320 kbps (LAME 3.93) - 142 MB | Covers - 41 MB
Genre: Soundtrack/Modern Classical, Electronic | RAR 3% Rec. | Label: Toshiba-EMI (TOCT-25539), 2004

Park Chan-wook’s Oldboy (2003) is one of the most popular and iconic of Korean films of the 2000s. A sensational and provocative piece of Asian extreme cinema, the film also has a superb score by Jo Yeong-wook, a regular composer for a number of Park’s works. Jo’s original score is rather eclectic in style - a mix of classical waltzes and modern electronica. Several tracks such as ‘Out of the Past’, ‘Dressed to Kill’, and ‘Frantic’ are inspired by the minimalist music of Philip Glass. There’s an unsettling quality to the music, particularly when it is haunted by the listener’s memory of the picture. Those who haven’t seen the film are likely to appreciate most of the tracks on offer here - the album is highly listenable and any fan of movie scores will dig this.
Tracklist:
01. Look Who's Talking
02. Somewhere In The Night
03. The Count Of Monte Cristo
04. Jailhouse Rock
05. In A Lonely Place
06. It's Alive!
07. The Searchers
08. Look Back In Anger
09. Vivaldi "Four Seasons" Concerto RV.297 - Perf. By Saint Luke Chamber Orchestra
10. Room At The Top
11. Cries And Whispers
12. Out Of Sight
13. For Whom The Bell Tolls
14. Out Of The Past
15. Breathless
16. The Old Boy
17. Dressed To Kill
18. Frantic
19. Cul-De-Sac
20. Kiss Me Deadly
21. Point Blank
22. Farewell, My Lovely
23. The Big Sleep
24. The Last Waltz

Total time: 01:00:16

Exact Audio Copy V1.0 beta 3 from 29. August 2011

EAC extraction logfile from 1. February 2012, 11:16

Jo Yeong-wook / Oldboy

Used drive : PLEXTOR DVDR PX-L890SA Adapter: 1 ID: 1

Read mode : Secure
Utilize accurate stream : Yes
Defeat audio cache : Yes
Make use of C2 pointers : No

Read offset correction : 6
Overread into Lead-In and Lead-Out : No
Fill up missing offset samples with silence : Yes
Delete leading and trailing silent blocks : No
Null samples used in CRC calculations : Yes
Used interface : Installed external ASPI interface
Gap handling : Appended to previous track

Used output format : User Defined Encoder
Selected bitrate : 1024 kBit/s
Quality : High
Add ID3 tag : No
Command line compressor : C:\Program Files\Exact Audio Copy\Flac\flac.exe
Additional command line options : -V -8 -T "Genre=%genre%" -T "Artist=%artist%" -T "Title=%title%" -T "Album=%albumtitle%" -T "Date=%year%" -T "Tracknumber=%tracknr%" -T "Comment=%comment%" %source%


TOC of the extracted CD

Track | Start | Length | Start sector | End sector
––––––––––––––––––––––––––––-
1 | 0:00.00 | 1:41.60 | 0 | 7634
2 | 1:41.60 | 1:29.30 | 7635 | 14339
3 | 3:11.15 | 2:34.37 | 14340 | 25926
4 | 5:45.52 | 1:57.05 | 25927 | 34706
5 | 7:42.57 | 3:29.58 | 34707 | 50439
6 | 11:12.40 | 2:36.42 | 50440 | 62181
7 | 13:49.07 | 3:29.48 | 62182 | 77904
8 | 17:18.55 | 2:11.25 | 77905 | 87754
9 | 19:30.05 | 3:07.02 | 87755 | 101781
10 | 22:37.07 | 1:36.30 | 101782 | 109011
11 | 24:13.37 | 3:32.08 | 109012 | 124919
12 | 27:45.45 | 1:00.65 | 124920 | 129484
13 | 28:46.35 | 2:46.00 | 129485 | 141934
14 | 31:32.35 | 1:25.15 | 141935 | 148324
15 | 32:57.50 | 4:22.02 | 148325 | 167976
16 | 37:19.52 | 3:44.53 | 167977 | 184829
17 | 41:04.30 | 1:59.72 | 184830 | 193826
18 | 43:04.27 | 3:28.63 | 193827 | 209489
19 | 46:33.15 | 1:32.15 | 209490 | 216404
20 | 48:05.30 | 3:57.37 | 216405 | 234216
21 | 52:02.67 | 0:27.73 | 234217 | 236314
22 | 52:30.65 | 2:47.60 | 236315 | 248899
23 | 55:18.50 | 1:34.40 | 248900 | 255989
24 | 56:53.15 | 3:23.20 | 255990 | 271234
25 | 62:48.35 | 11:09.40 | 282635 | 332849


Track 1

Filename F:\torrent\Oldboy_Jo Yeong_wook\score\01 Look Who's Talking.wav

Pre-gap length 0:00:02.00

Peak level 98.9 %
Extraction speed 1.6 X
Track quality 100.0 %
Test CRC D6C4AE4A
Copy CRC D6C4AE4A
Cannot be verified as accurate (confidence 1) [DB6841E9], AccurateRip returned [C579FCAD] (AR v2)
Copy OK

Track 2

Filename F:\torrent\Oldboy_Jo Yeong_wook\score\02 Somewhere In The Night.wav

Pre-gap length 0:00:01.33

Peak level 96.5 %
Extraction speed 1.6 X
Track quality 100.0 %
Test CRC 669BEE4F
Copy CRC 669BEE4F
Accurately ripped (confidence 1) [008A3049] (AR v1)
Copy OK

Track 3

Filename F:\torrent\Oldboy_Jo Yeong_wook\score\03 The Count Of Monte Cristo.wav

Pre-gap length 0:00:01.28

Peak level 97.1 %
Extraction speed 2.0 X
Track quality 100.0 %
Test CRC B3EBBB80
Copy CRC B3EBBB80
Accurately ripped (confidence 1) [D1867290] (AR v1)
Copy OK

Track 4

Filename F:\torrent\Oldboy_Jo Yeong_wook\score\04 Jailhouse Rock.wav

Pre-gap length 0:00:01.15

Peak level 100.0 %
Extraction speed 1.9 X
Track quality 100.0 %
Test CRC 6566E575
Copy CRC 6566E575
Accurately ripped (confidence 1) [ED62AB6C] (AR v1)
Copy OK

Track 5

Filename F:\torrent\Oldboy_Jo Yeong_wook\score\05 In A Lonely Place.wav

Pre-gap length 0:00:00.60

Peak level 96.8 %
Extraction speed 2.3 X
Track quality 100.0 %
Test CRC FF2856C9
Copy CRC FF2856C9
Accurately ripped (confidence 1) [A5748DB2] (AR v1)
Copy OK

Track 6

Filename F:\torrent\Oldboy_Jo Yeong_wook\score\06 It's Alive!.wav

Pre-gap length 0:00:00.53

Peak level 100.0 %
Extraction speed 2.3 X
Track quality 100.0 %
Test CRC E66945BD
Copy CRC E66945BD
Accurately ripped (confidence 1) [5367FD39] (AR v1)
Copy OK

Track 7

Filename F:\torrent\Oldboy_Jo Yeong_wook\score\07 The Searchers.wav

Pre-gap length 0:00:01.12

Peak level 88.9 %
Extraction speed 2.6 X
Track quality 100.0 %
Test CRC 520575D8
Copy CRC 520575D8
Accurately ripped (confidence 1) [8B1A77FD] (AR v1)
Copy OK

Track 8

Filename F:\torrent\Oldboy_Jo Yeong_wook\score\08 Look Back In Anger.wav

Pre-gap length 0:00:00.40

Peak level 84.4 %
Extraction speed 2.4 X
Track quality 100.0 %
Test CRC 815A0C34
Copy CRC 815A0C34
Accurately ripped (confidence 1) [8978FE1E] (AR v1)
Copy OK

Track 9

Filename F:\torrent\Oldboy_Jo Yeong_wook\score\09 Vivaldi ''Four Seasons'' Concerto RV.297 (Perf. By Saint Luke Chamber Orchestra).wav

Pre-gap length 0:00:01.05

Peak level 100.0 %
Extraction speed 2.7 X
Track quality 100.0 %
Test CRC CED7238E
Copy CRC CED7238E
Accurately ripped (confidence 1) [6119A50F] (AR v1)
Copy OK

Track 10

Filename F:\torrent\Oldboy_Jo Yeong_wook\score\10 Room At The Top.wav

Pre-gap length 0:00:01.47

Peak level 80.0 %
Extraction speed 2.4 X
Track quality 100.0 %
Test CRC 83A32D78
Copy CRC 83A32D78
Accurately ripped (confidence 1) [F70F9345] (AR v1)
Copy OK

Track 11

Filename F:\torrent\Oldboy_Jo Yeong_wook\score\11 Cries And Whispers.wav

Pre-gap length 0:00:01.25

Peak level 91.0 %
Extraction speed 2.9 X
Track quality 100.0 %
Test CRC E9DDC5B8
Copy CRC E9DDC5B8
Accurately ripped (confidence 1) [A55F2090] (AR v1)
Copy OK

Track 12

Filename F:\torrent\Oldboy_Jo Yeong_wook\score\12 Out Of Sight.wav

Pre-gap length 0:00:01.30

Peak level 78.4 %
Extraction speed 2.1 X
Track quality 100.0 %
Test CRC 9162A83B
Copy CRC 9162A83B
Accurately ripped (confidence 1) [7E53B6C8] (AR v1)
Copy OK

Track 13

Filename F:\torrent\Oldboy_Jo Yeong_wook\score\13 For Whom The Bell Tolls.wav

Pre-gap length 0:00:01.08

Peak level 99.3 %
Extraction speed 2.5 X
Track quality 99.9 %
Test CRC 0E1DF832
Copy CRC 0E1DF832
Accurately ripped (confidence 1) [4A303FE7] (AR v1)
Copy OK

Track 14

Filename F:\torrent\Oldboy_Jo Yeong_wook\score\14 Out Of The Past.wav

Pre-gap length 0:00:01.50

Peak level 94.2 %
Extraction speed 2.5 X
Track quality 100.0 %
Test CRC 6DBAE3B4
Copy CRC 6DBAE3B4
Cannot be verified as accurate (confidence 1) [D1AAFE67], AccurateRip returned [36A3C672] (AR v2)
Copy OK

Track 15

Filename F:\torrent\Oldboy_Jo Yeong_wook\score\15 Breathless.wav

Pre-gap length 0:00:01.10

Peak level 100.0 %
Extraction speed 3.3 X
Track quality 100.0 %
Test CRC 2D82EB29
Copy CRC 2D82EB29
Cannot be verified as accurate (confidence 1) [C69EA56D], AccurateRip returned [42325CA6] (AR v2)
Copy OK

Track 16

Filename F:\torrent\Oldboy_Jo Yeong_wook\score\16 The Old Boy.wav

Pre-gap length 0:00:01.25

Peak level 94.8 %
Extraction speed 3.4 X
Track quality 100.0 %
Test CRC B16143DB
Copy CRC B16143DB
Accurately ripped (confidence 1) [05F6841B] (AR v1)
Copy OK

Track 17

Filename F:\torrent\Oldboy_Jo Yeong_wook\score\17 Dressed To Kill.wav

Pre-gap length 0:00:00.73

Peak level 76.0 %
Extraction speed 3.0 X
Track quality 100.0 %
Test CRC A9C28CDB
Copy CRC A9C28CDB
Accurately ripped (confidence 1) [518EED41] (AR v1)
Copy OK

Track 18

Filename F:\torrent\Oldboy_Jo Yeong_wook\score\18 Frantic.wav

Peak level 100.0 %
Extraction speed 3.0 X
Track quality 99.9 %
Test CRC 3AAC6F8D
Copy CRC 3AAC6F8D
Cannot be verified as accurate (confidence 1) [FAE23E81], AccurateRip returned [B64E40AA] (AR v2)
Copy OK

Track 19

Filename F:\torrent\Oldboy_Jo Yeong_wook\score\19 Cul-De-Sac.wav

Pre-gap length 0:00:00.73

Peak level 48.9 %
Extraction speed 2.9 X
Track quality 100.0 %
Test CRC A2FBDE4E
Copy CRC A2FBDE4E
Cannot be verified as accurate (confidence 1) [EC62F0D3], AccurateRip returned [917A4A4C] (AR v2)
Copy OK

Track 20

Filename F:\torrent\Oldboy_Jo Yeong_wook\score\20 Kiss Me Deadly.wav

Pre-gap length 0:00:00.38

Peak level 93.6 %
Extraction speed 3.7 X
Track quality 100.0 %
Test CRC E569B462
Copy CRC E569B462
Cannot be verified as accurate (confidence 1) [9E847B33], AccurateRip returned [2B5F83C0] (AR v2)
Copy OK

Track 21

Filename F:\torrent\Oldboy_Jo Yeong_wook\score\21 Point Blank.wav

Pre-gap length 0:00:01.22

Peak level 96.3 %
Extraction speed 1.8 X
Track quality 100.0 %
Test CRC 1FE58E44
Copy CRC 1FE58E44
Accurately ripped (confidence 1) [F218F58F] (AR v1)
Copy OK

Track 22

Filename F:\torrent\Oldboy_Jo Yeong_wook\score\22 Farewell, My Lovely.wav

Pre-gap length 0:00:00.13

Peak level 100.0 %
Extraction speed 3.6 X
Track quality 100.0 %
Test CRC A2E0DDCA
Copy CRC A2E0DDCA
Accurately ripped (confidence 1) [CE9B2D96] (AR v1)
Copy OK

Track 23

Filename F:\torrent\Oldboy_Jo Yeong_wook\score\23 The Big Sleep.wav

Pre-gap length 0:00:02.10

Peak level 100.0 %
Extraction speed 3.1 X
Track quality 100.0 %
Test CRC 8B2FA52D
Copy CRC 8B2FA52D
Accurately ripped (confidence 1) [31E129EB] (AR v1)
Copy OK

Track 24

Filename F:\torrent\Oldboy_Jo Yeong_wook\score\24 The Last Waltz.wav

Pre-gap length 0:00:02.20

Peak level 100.0 %
Extraction speed 3.8 X
Track quality 100.0 %
Test CRC 396442D8
Copy CRC 396442D8
Accurately ripped (confidence 1) [8099FBFB] (AR v1)
Copy OK


18 трек(и) скопированы точно
6 трек(и) не удалось проверить на точность

Some tracks could not be verified as accurate

No errors occurred

End of status report

==== Log checksum EA87963C37CD961D90CA75979B4B9AEE3B2DD270269DBB481291C6583023116A ====

[CUETools log; Date: 10.12.2017 23:41:52; Version: 2.1.4]
CD-Extra data track length 11:09:40.
[CTDB TOCID: lfGTcVxpmmLP48iwu_yEfI8YzCQ-] found.
Track | CTDB Status
1 | (5/5) Accurately ripped
2 | (5/5) Accurately ripped
3 | (5/5) Accurately ripped
4 | (5/5) Accurately ripped
5 | (5/5) Accurately ripped
6 | (5/5) Accurately ripped
7 | (5/5) Accurately ripped
8 | (5/5) Accurately ripped
9 | (5/5) Accurately ripped
10 | (5/5) Accurately ripped
11 | (5/5) Accurately ripped
12 | (5/5) Accurately ripped
13 | (5/5) Accurately ripped
14 | (5/5) Accurately ripped
15 | (5/5) Accurately ripped
16 | (5/5) Accurately ripped
17 | (5/5) Accurately ripped
18 | (5/5) Accurately ripped
19 | (5/5) Accurately ripped
20 | (5/5) Accurately ripped
21 | (5/5) Accurately ripped
22 | (5/5) Accurately ripped
23 | (5/5) Accurately ripped
24 | (5/5) Accurately ripped
[AccurateRip ID: 0033d61f-039403ec-6f115619] found.
Track [ CRC | V2 ] Status
01 [5228bc79|db6841e9] (0+2/2) Accurately ripped
02 [008a3049|7ba8d9e1] (0+2/2) Accurately ripped
03 [d1867290|d2850073] (0+2/2) Accurately ripped
04 [ed62ab6c|1b91c841] (0+2/2) Accurately ripped
05 [a5748db2|3dd517e0] (0+2/2) Accurately ripped
06 [5367fd39|3e1f2b9f] (0+2/2) Accurately ripped
07 [8b1a77fd|5fbca4c6] (0+2/2) Accurately ripped
08 [8978fe1e|deefea36] (0+2/2) Accurately ripped
09 [6119a50f|5562e956] (0+2/2) Accurately ripped
10 [f70f9345|25d13e17] (0+2/2) Accurately ripped
11 [a55f2090|3f5adae0] (0+2/2) Accurately ripped
12 [7e53b6c8|e3a9e5a1] (0+2/2) Accurately ripped
13 [4a303fe7|1347b6f4] (0+2/2) Accurately ripped
14 [e8f628e2|d1aafe67] (0+2/2) Accurately ripped
15 [8592d3d2|c69ea56d] (0+2/2) Accurately ripped
16 [05f6841b|69dc06a4] (0+2/2) Accurately ripped
17 [518eed41|8846595c] (0+2/2) Accurately ripped
18 [6be28590|fae23e81] (0+2/2) Accurately ripped
19 [4da78458|ec62f0d3] (0+2/2) Accurately ripped
20 [f3409284|9e847b33] (0+2/2) Accurately ripped
21 [f218f58f|6b23aafa] (0+2/2) Accurately ripped
22 [ce9b2d96|3952bf11] (0+2/2) Accurately ripped
23 [31e129eb|c1fcdf8c] (0+2/2) Accurately ripped
24 [8099fbfb|ac8eeead] (0+2/2) Accurately ripped

Track Peak [ CRC32 ] [W/O NULL] [ LOG ]
– 100,0 [0CAB3F27] [7EB72C98]
01 98,9 [D6C4AE4A] [8E42DE43] CRC32
02 96,5 [669BEE4F] [4745DECD] CRC32
03 97,1 [B3EBBB80] [5233DC47] CRC32
04 100,0 [6566E575] [A9F659FF] CRC32
05 96,8 [FF2856C9] [BAF88F96] CRC32
06 100,0 [E66945BD] [A8F01C8C] CRC32
07 88,9 [520575D8] [894A83DE] CRC32
08 84,4 [815A0C34] [75CF40D6] CRC32
09 100,0 [CED7238E] [32531562] CRC32
10 80,0 [83A32D78] [D917EA62] CRC32
11 91,0 [E9DDC5B8] [550938E5] CRC32
12 78,4 [9162A83B] [DBF20931] CRC32
13 99,3 [0E1DF832] [04487600] CRC32
14 94,2 [6DBAE3B4] [42132912] CRC32
15 100,0 [2D82EB29] [617AA6DD] CRC32
16 94,8 [B16143DB] [061DA4E3] CRC32
17 75,9 [A9C28CDB] [CDE4A907] CRC32
18 100,0 [3AAC6F8D] [1BB775E3] CRC32
19 48,9 [A2FBDE4E] [84F64BFB] CRC32
20 93,6 [E569B462] [3984CE08] CRC32
21 96,3 [1FE58E44] [67FB21E7] CRC32
22 100,0 [A2E0DDCA] [961FBD5C] CRC32
23 100,0 [8B2FA52D] [001FB364] CRC32
24 100,0 [396442D8] [A9914473] CRC32

Thanks to Sarant