Subcategories

Joan Jett: Collection (1980 - 2013) [12CD, Japanese Ed. + DVD]

Posted By: v3122
Joan Jett: Collection (1980 - 2013) [12CD, Japanese Ed. + DVD]

Joan Jett: Collection (1980 - 2013)
EAC | Flac(Image) + Cue + Log & MP3 CBR 320Kbps
12CD | Label: Various | ~ 3850 or 1673 Mb | Artwork -> 924 Mb
DVD-5: NTSC 4:3 (720x480) VBR | Dolby AC3, 2 ch & 6 ch
Hard Rock

American rock singer, guitar player, record producer, and actress. Born on September 22, 1958 as Joan Marie Larkin. After the divorce of her parents she changed her surname to her mother's maiden name: Jett. At age 15, Jett co-founded The Runaways. As the leader of Joan Jett & The Blackhearts, Jett has had eight platinum and gold albums and nine Top 40 singles. She has her own independent label, Blackheart Records. Jett has acted in movies and television, and was executive producer of "The Runaways," a film based on Cherie Currie's book about The Runaways, Neon Angel.

Inducted into Rock & Roll Hall of Fame in 2015 (performer, for Joan Jett & The Blackhearts).

~ discogs
Joan Jett: Collection (1980 - 2013) [12CD, Japanese Ed. + DVD]

Joan Jett: Collection (1980 - 2013):

Joan Jett: Collection (1980 - 2013) [12CD, Japanese Ed. + DVD]

Tracklist CD1 - 1980 - Bad Reputation (VICP-5173):

01. Bad Reputation (02:50)
02. Make Believe (03:11)
03. You Don’t Know What You’ve Got (03:45)
04. You Don’t Own Me (03:27)
05. Too Bad On Your Birthday (02:58)
06. Do You Wanna Touch Me (Oh Yeah) (03:49)
07. Let Me Go (02:42)
08. Doing All Right With The Boys (03:38)
09. Shout (02:48)
10. Jezebel (03:28)
11. Don’t Abuse Me (03:38)
12. Wooly Bully (02:19)
13. Call Me Lightning (bonus track) (02:25)
14. Hanky Panky (bonus track) (03:31)
15. Summertime Blues (bonus track) (02:23)
16. What Can I Do For You? (bonus track) (02:14)

Exact Audio Copy V1.0 beta 1 from 15. November 2010

EAC extraction logfile from 11. February 2012, 16:15

Joan Jett / Bad Reputation (VICP-5173)

Used drive : PIONEER DVD-RW DVR-219L Adapter: 6 ID: 0

Read mode : Secure
Utilize accurate stream : Yes
Defeat audio cache : Yes
Make use of C2 pointers : No

Read offset correction : 6
Overread into Lead-In and Lead-Out : No
Fill up missing offset samples with silence : Yes
Delete leading and trailing silent blocks : No
Null samples used in CRC calculations : Yes
Used interface : Installed external ASPI interface

Used output format : Internal WAV Routines
Sample format : 44.100 Hz; 16 Bit; Stereo


TOC of the extracted CD

Track | Start | Length | Start sector | End sector
––––––––––––––––––––––––––––-
1 | 0:00.37 | 2:50.65 | 37 | 12851
2 | 2:51.27 | 3:11.42 | 12852 | 27218
3 | 6:02.69 | 3:45.10 | 27219 | 44103
4 | 9:48.04 | 3:27.40 | 44104 | 59668
5 | 13:15.44 | 2:58.53 | 59669 | 73071
6 | 16:14.22 | 3:49.60 | 73072 | 90306
7 | 20:04.07 | 2:42.55 | 90307 | 102511
8 | 22:46.62 | 3:38.10 | 102512 | 118871
9 | 26:24.72 | 2:48.50 | 118872 | 131521
10 | 29:13.47 | 3:28.02 | 131522 | 147123
11 | 32:41.49 | 3:38.30 | 147124 | 163503
12 | 36:20.04 | 2:19.63 | 163504 | 173991
13 | 38:39.67 | 2:25.27 | 173992 | 184893
14 | 41:05.19 | 3:31.43 | 184894 | 200761
15 | 44:36.62 | 2:23.02 | 200762 | 211488
16 | 46:59.64 | 2:14.50 | 211489 | 221588


Range status and errors

Selected range

Filename C:\_www.AvaxHome.ru\1980- Bad Reputation (RM 1992) [1st Japanese pressing]\Joan Jett - Bad Reputation (VICP-5173).wav

Peak level 97.3 %
Extraction speed 0.3 X
Range quality 100.0 %
Test CRC 6FF0FD61
Copy CRC 6FF0FD61
Copy OK

No errors occurred


AccurateRip summary

Track 1 not present in database
Track 2 not present in database
Track 3 not present in database
Track 4 not present in database
Track 5 not present in database
Track 6 not present in database
Track 7 not present in database
Track 8 not present in database
Track 9 not present in database
Track 10 not present in database
Track 11 not present in database
Track 12 not present in database
Track 13 not present in database
Track 14 not present in database
Track 15 not present in database
Track 16 not present in database

None of the tracks are present in the AccurateRip database

End of status report

==== Log checksum 6CC864654BE0DE818129BC7CA1852491F2E6948E86A58E3C5B1D7497AC792216 ====


[CUETools log; Date: 14.08.2019 12:35:32; Version: 2.1.4]
Pregap length 00:00:37.
[AccurateRip ID: 001df600-0165d573-f50b8a10] disk not present in database.

Track Peak [ CRC32 ] [W/O NULL] [ LOG ]
– 97,3 [6FF0FD61] [B3E696A0] CRC32
01 97,3 [B6BB7D44] [AF5E44C0]
02 97,3 [C7EBAD8A] [4053AF92]
03 97,3 [B2A68C4B] [A97CA615]
04 97,3 [C2BD5067] [4AAB0262]
05 97,3 [F71E5372] [E054BCD6]
06 97,3 [B6F0F2A9] [F356F4DA]
07 97,3 [26ED5034] [D4887455]
08 97,3 [679272AD] [C1B02056]
09 97,3 [B827C293] [27194B2B]
10 97,3 [F50D6281] [EA33E8DA]
11 97,3 [C358CB30] [DEDDF2EB]
12 97,3 [7F9E0211] [CC5F8283]
13 97,3 [2D5FB69A] [050002A0]
14 97,3 [A1D573AC] [A61AD1D1]
15 97,3 [458745FA] [3AB94CBD]
16 95,4 [60CF251F] [7B20D628]


Joan Jett: Collection (1980 - 2013) [12CD, Japanese Ed. + DVD]

Tracklist CD2 - 1981 - I Love Rock 'N Roll (VICP-5174):

01. I Love Rock N’ Roll (02:55)
02. (I’m Gonna) Run Away (02:28)
03. Love Is Pain (03:07)
04. Nag (02:46)
05. Crimson And Clover (03:17)
06. Victim Of Circumstance (02:54)
07. Bits And Pieces (02:09)
08. Be Straight (02:41)
09. You’re Too Possessive (03:35)
10. Little Drummer Boy (04:16)
11. Oh Woe Is Me (02:45)
12. Louie Louie (02:59)
13. You Don’t Know What You Got (live) (02:46)

Exact Audio Copy V1.0 beta 1 from 15. November 2010

EAC extraction logfile from 11. February 2012, 20:52

Joan Jett & The Blackhearts / I Love Rock 'N Roll (VICP-5174)

Used drive : PIONEER DVD-RW DVR-219L Adapter: 6 ID: 0

Read mode : Secure
Utilize accurate stream : Yes
Defeat audio cache : Yes
Make use of C2 pointers : No

Read offset correction : 6
Overread into Lead-In and Lead-Out : No
Fill up missing offset samples with silence : Yes
Delete leading and trailing silent blocks : No
Null samples used in CRC calculations : Yes
Used interface : Installed external ASPI interface

Used output format : Internal WAV Routines
Sample format : 44.100 Hz; 16 Bit; Stereo


TOC of the extracted CD

Track | Start | Length | Start sector | End sector
––––––––––––––––––––––––––––-
1 | 0:00.37 | 2:55.67 | 37 | 13228
2 | 2:56.29 | 2:28.45 | 13229 | 24373
3 | 5:24.74 | 3:07.18 | 24374 | 38416
4 | 8:32.17 | 2:46.47 | 38417 | 50913
5 | 11:18.64 | 3:17.33 | 50914 | 65721
6 | 14:36.22 | 2:54.57 | 65722 | 78828
7 | 17:31.04 | 2:09.33 | 78829 | 88536
8 | 19:40.37 | 2:41.50 | 88537 | 100661
9 | 22:22.12 | 3:35.70 | 100662 | 116856
10 | 25:58.07 | 4:16.57 | 116857 | 136113
11 | 30:14.64 | 2:45.60 | 136114 | 148548
12 | 33:00.49 | 2:59.13 | 148549 | 161986
13 | 35:59.62 | 2:46.50 | 161987 | 174486


Range status and errors

Selected range

Filename C:\_www.AvaxHome.ru\1981- I Love Rock 'N Roll (RM 1992) [1st Japanese pressing]\Joan Jett & The Blackhearts - I Love Rock 'N Roll (VICP-5174).wav

Peak level 98.8 %
Extraction speed 0.4 X
Range quality 100.0 %
Test CRC 965F3399
Copy CRC 965F3399
Copy OK

No errors occurred


AccurateRip summary

Track 1 accurately ripped (confidence 1) [4E15A520]
Track 2 accurately ripped (confidence 1) [DABD3B18]
Track 3 accurately ripped (confidence 1) [A1F0E6C2]
Track 4 accurately ripped (confidence 1) [B5A5A3E7]
Track 5 accurately ripped (confidence 1) [5563125C]
Track 6 accurately ripped (confidence 1) [FD02EFA7]
Track 7 accurately ripped (confidence 1) [EDE8F719]
Track 8 accurately ripped (confidence 1) [65ABE0C8]
Track 9 accurately ripped (confidence 1) [50630350]
Track 10 accurately ripped (confidence 1) [7D5721D8]
Track 11 accurately ripped (confidence 1) [EE426F24]
Track 12 accurately ripped (confidence 1) [5CF1409B]
Track 13 accurately ripped (confidence 1) [6A927F29]

All tracks accurately ripped

End of status report

==== Log checksum 6DBD47C499D57EC5425F30FA5B66067C0CA44C683A07C2C7E913838CA8886DF4 ====


[CUETools log; Date: 14.08.2019 13:05:08; Version: 2.1.4]
Pregap length 00:00:37.
[AccurateRip ID: 00124a7b-00b81a19-a709160d] found.
Track [ CRC | V2 ] Status
01 [4e15a520|146485d5] (0+8/8) Accurately ripped
02 [dabd3b18|483777f3] (0+8/8) Accurately ripped
03 [a1f0e6c2|293d2d17] (0+8/8) Accurately ripped
04 [b5a5a3e7|57969a92] (0+8/8) Accurately ripped
05 [5563125c|69634f24] (0+8/8) Accurately ripped
06 [fd02efa7|14dc3f86] (0+8/8) Accurately ripped
07 [ede8f719|e0e81df5] (0+8/8) Accurately ripped
08 [65abe0c8|c0a75d01] (0+8/8) Accurately ripped
09 [50630350|e5d6f83e] (0+8/8) Accurately ripped
10 [7d5721d8|f98d59a5] (0+8/8) Accurately ripped
11 [ee426f24|0c0f0baa] (0+8/8) Accurately ripped
12 [5cf1409b|0c18280c] (0+8/8) Accurately ripped
13 [6a927f29|4a8e726e] (0+8/8) Accurately ripped

Track Peak [ CRC32 ] [W/O NULL] [ LOG ]
– 98,8 [965F3399] [0F70B467] CRC32
01 98,8 [E016D155] [E83F26C5]
02 98,8 [D0996345] [119F3C22]
03 97,5 [CC2F80C1] [7E52B813]
04 98,8 [2ABA3A23] [D7280EEE]
05 98,8 [AEEFA223] [11650A11]
06 98,8 [FFF8C03E] [DCE8432A]
07 98,8 [18F83D17] [B60ACB4A]
08 98,8 [1A9541F5] [22E35174]
09 98,8 [1810DFC1] [8B53B4B2]
10 98,8 [D764ACCA] [BC0B1AF3]
11 97,2 [F3B771DA] [6CD918FA]
12 95,6 [F03A43FA] [DE67418D]
13 97,3 [CE45D106] [59A1DD85]


Joan Jett: Collection (1980 - 2013) [12CD, Japanese Ed. + DVD]

Tracklist CD3 - 1983 - Album (VICP-5175):

01. Fake Friends
02. Handyman
03. Everyday People
04. A Hundred Feet Away
05. Secret Love
06. Star Star [Bonus track]
07. The French Song
08. Tossin' & Turnin'
09. Why Can't We Be Happy
10. I Love Playin' With Fire
11. Coney Island Whitefish
12. Had Enough
13. Nitetime [Bonus track]
14. Everyday People (Dance Mix) [Bonus track]
15. Locked Groove [Bonus track]

Exact Audio Copy V1.0 beta 1 from 15. November 2010

EAC extraction logfile from 13. February 2012, 16:30

Joan Jett & The Blackhearts / Album (VICP-5175)

Used drive : PIONEER DVD-RW DVR-219L Adapter: 6 ID: 0

Read mode : Secure
Utilize accurate stream : Yes
Defeat audio cache : Yes
Make use of C2 pointers : No

Read offset correction : 6
Overread into Lead-In and Lead-Out : No
Fill up missing offset samples with silence : Yes
Delete leading and trailing silent blocks : No
Null samples used in CRC calculations : Yes
Used interface : Installed external ASPI interface

Used output format : Internal WAV Routines
Sample format : 44.100 Hz; 16 Bit; Stereo


TOC of the extracted CD

Track | Start | Length | Start sector | End sector
––––––––––––––––––––––––––––-
1 | 0:00.37 | 3:24.17 | 37 | 15353
2 | 3:24.54 | 3:24.33 | 15354 | 30686
3 | 6:49.12 | 2:40.10 | 30687 | 42696
4 | 9:29.22 | 2:33.52 | 42697 | 54223
5 | 12:02.74 | 4:04.00 | 54224 | 72523
6 | 16:06.74 | 4:01.00 | 72524 | 90598
7 | 20:07.74 | 3:34.70 | 90599 | 106718
8 | 23:42.69 | 2:25.30 | 106719 | 117623
9 | 26:08.24 | 3:53.38 | 117624 | 135136
10 | 30:01.62 | 3:02.55 | 135137 | 148841
11 | 33:04.42 | 3:35.65 | 148842 | 165031
12 | 36:40.32 | 2:32.60 | 165032 | 176491
13 | 39:13.17 | 4:54.02 | 176492 | 198543
14 | 44:07.19 | 4:22.15 | 198544 | 218208
15 | 48:29.34 | 3:47.15 | 218209 | 235248


Range status and errors

Selected range

Filename C:\_www.AvaxHome.ru\JOAN JETT\1983- Album (RM 1992) [1st Japanese pressing]\Joan Jett & The Blackhearts - Album (VICP-5175).wav

Peak level 97.3 %
Extraction speed 0.5 X
Range quality 100.0 %
Test CRC ED91227B
Copy CRC ED91227B
Copy OK

No errors occurred


AccurateRip summary

Track 1 not present in database
Track 2 not present in database
Track 3 not present in database
Track 4 not present in database
Track 5 not present in database
Track 6 not present in database
Track 7 not present in database
Track 8 not present in database
Track 9 not present in database
Track 10 not present in database
Track 11 not present in database
Track 12 not present in database
Track 13 not present in database
Track 14 not present in database
Track 15 not present in database

None of the tracks are present in the AccurateRip database

End of status report

==== Log checksum AF8F7491CAC6F2B6B1515426DE97ED663D39194EED76E3F5CB8CC2D6E97A8443 ====


[CUETools log; Date: 14.08.2019 13:12:36; Version: 2.1.4]
Pregap length 00:00:37.
[AccurateRip ID: 001b9662-013abc86-c00c400f] disk not present in database.

Track Peak [ CRC32 ] [W/O NULL] [ LOG ]
– 97,3 [ED91227B] [F0964B72] CRC32
01 97,2 [B43D2640] [149FB582]
02 97,3 [3EB8E362] [FDA3181F]
03 97,3 [0462185E] [16CC2B7C]
04 97,2 [7EFAC7B3] [D349A438]
05 97,2 [63895E1D] [393A53D2]
06 97,2 [8D0FDB73] [50FF28DD]
07 97,3 [4911CABF] [5B522010]
08 97,2 [EE954B6A] [B2B51373]
09 97,2 [863E2865] [21D3C921]
10 97,2 [810BE823] [8870D0EC]
11 97,2 [AC4BA5BA] [2FF79AE7]
12 97,2 [20E5F643] [0F57CB17]
13 97,2 [3B768BC6] [C9154D26]
14 97,3 [0FBDF101] [B26A4B16]
15 97,3 [1590B6C7] [A8804D1B]


Joan Jett: Collection (1980 - 2013) [12CD, Japanese Ed. + DVD]

Tracklist CD4 - 1984 - Glorious Results Of A Misspent Youth (VICP-5176):

01. Cherry Bomb (02:35)
02. I Love You Love Me Love (03:18)
03. Frustrated (04:37)
04. Hold Me (03:11)
05. Long Time (02:27)
06. Talkin’ Bout My Baby (03:37)
07. I Need Someone (03:15)
08. Love Like Mine (04:01)
09. New Orleans (02:54)
10. Someday (02:47)
11. Push And Stomp (03:03)
12. I Got No Answers (02:27)
13. Hide And Seek (bonus track) (02:40)
14. I Can’t Control Myself (bonus track) (03:26)
15. Bird Dog (bonus track) (02:42)
16. Talkin’ Bout My Baby (Live, bonus track) (03:52)

Exact Audio Copy V1.0 beta 1 from 15. November 2010

EAC extraction logfile from 13. February 2012, 20:12

Joan Jett & The Blackhearts / Glorious Results Of A Misspent Youth (VICP-5176)

Used drive : PIONEER DVD-RW DVR-219L Adapter: 6 ID: 0

Read mode : Secure
Utilize accurate stream : Yes
Defeat audio cache : Yes
Make use of C2 pointers : No

Read offset correction : 6
Overread into Lead-In and Lead-Out : No
Fill up missing offset samples with silence : Yes
Delete leading and trailing silent blocks : No
Null samples used in CRC calculations : Yes
Used interface : Installed external ASPI interface

Used output format : Internal WAV Routines
Sample format : 44.100 Hz; 16 Bit; Stereo


TOC of the extracted CD

Track | Start | Length | Start sector | End sector
––––––––––––––––––––––––––––-
1 | 0:00.37 | 2:35.55 | 37 | 11716
2 | 2:36.17 | 3:18.70 | 11717 | 26636
3 | 5:55.12 | 4:37.55 | 26637 | 47466
4 | 10:32.67 | 3:11.72 | 47467 | 61863
5 | 13:44.64 | 2:27.70 | 61864 | 72958
6 | 16:12.59 | 3:37.50 | 72959 | 89283
7 | 19:50.34 | 3:15.58 | 89284 | 103966
8 | 23:06.17 | 4:01.57 | 103967 | 122098
9 | 27:07.74 | 2:54.05 | 122099 | 135153
10 | 30:02.04 | 2:47.45 | 135154 | 147723
11 | 32:49.49 | 3:03.65 | 147724 | 161513
12 | 35:53.39 | 2:27.38 | 161514 | 172576
13 | 38:21.02 | 2:40.72 | 172577 | 184648
14 | 41:01.74 | 3:26.55 | 184649 | 200153
15 | 44:28.54 | 2:42.73 | 200154 | 212376
16 | 47:11.52 | 3:52.60 | 212377 | 229836


Range status and errors

Selected range

Filename C:\_www.AvaxHome.ru\JOAN JETT\1984- Glorious Results Of A Misspent Youth (RM 1992) [1st Japanese pressing]\Joan Jett & The Blackhearts - Glorious Results Of A Misspent Youth (VICP-5176).wav

Peak level 97.3 %
Extraction speed 0.5 X
Range quality 100.0 %
Test CRC C4094B06
Copy CRC C4094B06
Copy OK

No errors occurred


AccurateRip summary

Track 1 accurately ripped (confidence 1) [783E9C1B]
Track 2 accurately ripped (confidence 1) [8B1D168E]
Track 3 accurately ripped (confidence 1) [ED2FCE66]
Track 4 accurately ripped (confidence 1) [22F7AB39]
Track 5 accurately ripped (confidence 1) [AD5D2573]
Track 6 accurately ripped (confidence 1) [087C70E3]
Track 7 accurately ripped (confidence 1) [850882F9]
Track 8 accurately ripped (confidence 1) [D5F08484]
Track 9 accurately ripped (confidence 1) [B5526452]
Track 10 accurately ripped (confidence 1) [983C6093]
Track 11 accurately ripped (confidence 1) [5D7725BC]
Track 12 accurately ripped (confidence 1) [835CE439]
Track 13 accurately ripped (confidence 1) [2B827DAB]
Track 14 accurately ripped (confidence 1) [21807869]
Track 15 accurately ripped (confidence 1) [1C0D11D7]
Track 16 accurately ripped (confidence 1) [CE5B68E1]

All tracks accurately ripped

End of status report

==== Log checksum F4E3C0E522CEC8F100436A5E41BA2BD0F4CD823FE04E5A04DD67A86A3540E61F ====


[CUETools log; Date: 14.08.2019 12:59:26; Version: 2.1.4]
Pregap length 00:00:37.
[AccurateRip ID: 001e3671-0168d231-e50bf810] found.
Track [ CRC | V2 ] Status
01 [783e9c1b|cf6099df] (0+1/1) Accurately ripped
02 [8b1d168e|b80ea5d4] (0+1/1) Accurately ripped
03 [ed2fce66|85adb0d1] (0+1/1) Accurately ripped
04 [22f7ab39|f2cb06ed] (0+1/1) Accurately ripped
05 [ad5d2573|f4f84a45] (0+1/1) Accurately ripped
06 [087c70e3|e8cbf09c] (0+1/1) Accurately ripped
07 [850882f9|685d7925] (0+1/1) Accurately ripped
08 [d5f08484|9ee1c49b] (0+1/1) Accurately ripped
09 [b5526452|a57258c7] (0+1/1) Accurately ripped
10 [983c6093|af2786cb] (0+1/1) Accurately ripped
11 [5d7725bc|53220bdf] (0+1/1) Accurately ripped
12 [835ce439|6cbc5989] (0+1/1) Accurately ripped
13 [2b827dab|53c3187f] (0+1/1) Accurately ripped
14 [21807869|49a43ffc] (0+1/1) Accurately ripped
15 [1c0d11d7|9b0cea2c] (0+1/1) Accurately ripped
16 [ce5b68e1|29d4b713] (0+1/1) Accurately ripped

Track Peak [ CRC32 ] [W/O NULL] [ LOG ]
– 97,3 [C4094B06] [9203AFA4] CRC32
01 97,3 [5BDAE2CF] [08D720C3]
02 97,3 [ECAE6BD6] [A85CA1BC]
03 97,3 [E432BF9E] [7212F6F2]
04 97,3 [825E47C3] [CC0BB182]
05 97,3 [8C040813] [6990EB20]
06 97,3 [D5729C47] [C099F28A]
07 97,3 [E5C4F501] [3B43619C]
08 97,3 [734E610D] [FE95B022]
09 97,3 [6CBE11B0] [BB6A8F78]
10 97,2 [AA437EF1] [C35221F5]
11 97,3 [982124C7] [7A7F3C8B]
12 97,3 [1F3FD498] [47AE861A]
13 97,3 [664B0F90] [5C46B9F6]
14 95,2 [87D69608] [E0F813EE]
15 97,3 [A30BBCCA] [8F8995AF]
16 60,1 [E3E7D90C] [A1E69586]


Joan Jett: Collection (1980 - 2013) [12CD, Japanese Ed. + DVD]

Tracklist CD5 - 1986 - Good Music (32DP-615):

01. Good Music (05:46)
02. This Means War (03:38)
03. Roadrunner (03:34)
04. If Ya Want My Luv (03:55)
05. Fun, Fun, Fun (02:22)
06. Black Leather (03:59)
07. Outlaw (04:16)
08. Just Lust (03:17)
09. You Got Me Floatin’ (03:31)
10. Contact (03:13)

Exact Audio Copy V1.0 beta 1 from 15. November 2010

EAC extraction logfile from 16. February 2012, 1:36

Joan Jett & The Blackhearts / Good Music (32DP-615)

Used drive : PLEXTOR DVDR PX-760A Adapter: 10 ID: 0

Read mode : Secure
Utilize accurate stream : Yes
Defeat audio cache : Yes
Make use of C2 pointers : No

Read offset correction : 30
Overread into Lead-In and Lead-Out : No
Fill up missing offset samples with silence : Yes
Delete leading and trailing silent blocks : No
Null samples used in CRC calculations : Yes
Used interface : Installed external ASPI interface

Used output format : Internal WAV Routines
Sample format : 44.100 Hz; 16 Bit; Stereo


TOC of the extracted CD

Track | Start | Length | Start sector | End sector
––––––––––––––––––––––––––––-
1 | 0:00.00 | 5:46.25 | 0 | 25974
2 | 5:46.25 | 3:38.00 | 25975 | 42324
3 | 9:24.25 | 3:34.00 | 42325 | 58374
4 | 12:58.25 | 3:55.12 | 58375 | 76011
5 | 16:53.37 | 2:22.13 | 76012 | 86674
6 | 19:15.50 | 3:59.60 | 86675 | 104659
7 | 23:15.35 | 4:16.40 | 104660 | 123899
8 | 27:32.00 | 3:17.25 | 123900 | 138699
9 | 30:49.25 | 3:31.62 | 138700 | 154586
10 | 34:21.12 | 3:13.25 | 154587 | 169086


Range status and errors

Selected range

Filename C:\_www.AvaxHome.ru\JOAN JETT\1986- Good Music [1st Japanese pressing]\Joan Jett & The Blackhearts - Good Music (32DP-615).wav

Copy aborted

End of status report

==== Log checksum 4C2D246B056433EC79A32B4282A9BBFD4B6BE47634AA784869C09DFB5F63A446 ====

––––––––––––––––––––––––––––––

Exact Audio Copy V1.0 beta 1 from 15. November 2010

EAC extraction logfile from 16. February 2012, 2:10

Joan Jett & The Blackhearts / Good Music (32DP-615)

Used drive : PLEXTOR DVDR PX-760A Adapter: 10 ID: 0

Read mode : Secure
Utilize accurate stream : Yes
Defeat audio cache : Yes
Make use of C2 pointers : No

Read offset correction : 30
Overread into Lead-In and Lead-Out : No
Fill up missing offset samples with silence : Yes
Delete leading and trailing silent blocks : No
Null samples used in CRC calculations : Yes
Used interface : Installed external ASPI interface

Used output format : Internal WAV Routines
Sample format : 44.100 Hz; 16 Bit; Stereo


TOC of the extracted CD

Track | Start | Length | Start sector | End sector
––––––––––––––––––––––––––––-
1 | 0:00.00 | 5:46.25 | 0 | 25974
2 | 5:46.25 | 3:38.00 | 25975 | 42324
3 | 9:24.25 | 3:34.00 | 42325 | 58374
4 | 12:58.25 | 3:55.12 | 58375 | 76011
5 | 16:53.37 | 2:22.13 | 76012 | 86674
6 | 19:15.50 | 3:59.60 | 86675 | 104659
7 | 23:15.35 | 4:16.40 | 104660 | 123899
8 | 27:32.00 | 3:17.25 | 123900 | 138699
9 | 30:49.25 | 3:31.62 | 138700 | 154586
10 | 34:21.12 | 3:13.25 | 154587 | 169086


Range status and errors

Selected range

Filename C:\_www.AvaxHome.ru\JOAN JETT\1986- Good Music [1st Japanese pressing]\Joan Jett & The Blackhearts - Good Music (32DP-615).wav

Peak level 100.0 %
Extraction speed 0.2 X
Range quality 99.9 %
Test CRC 4EC15437
Copy CRC 4EC15437
Copy OK

No errors occurred


AccurateRip summary

Track 1 not present in database
Track 2 not present in database
Track 3 not present in database
Track 4 not present in database
Track 5 not present in database
Track 6 not present in database
Track 7 not present in database
Track 8 not present in database
Track 9 not present in database
Track 10 not present in database

None of the tracks are present in the AccurateRip database

End of status report

==== Log checksum 2ED025F14BA72AA616EFADB3A88921CF7DBB9FAC43124B2F0BF9E5EB82C9116F ====


[CUETools log; Date: 14.08.2019 12:40:10; Version: 2.1.4]
[AccurateRip ID: 000ef548-007558f3-8408ce0a] found.
Track [ CRC | V2 ] Status
01 [21e5dc09|ea0f585b] (0+2/2) Accurately ripped
02 [3179ebdb|65a1da87] (0+2/2) Accurately ripped
03 [b4507319|7e415493] (0+2/2) Accurately ripped
04 [b539c040|2d41f3b9] (0+2/2) Accurately ripped
05 [4e79acab|1abce456] (0+2/2) Accurately ripped
06 [33b9746a|69a63d15] (0+2/2) Accurately ripped
07 [aa65d885|caedc9fc] (0+2/2) Accurately ripped
08 [89f2b120|a30d398c] (0+2/2) Accurately ripped
09 [578ca2e6|16fc4b0c] (0+2/2) Accurately ripped
10 [86ffef0d|e677924d] (0+2/2) Accurately ripped

Track Peak [ CRC32 ] [W/O NULL] [ LOG ]
– 100,0 [4EC15437] [1BFB9454] CRC32
01 85,1 [95CAE8A0] [396DC5BC]
02 97,5 [4FFCE635] [5FD696DF]
03 94,1 [D3C36DD3] [7D4CFCCC]
04 67,5 [C0A94585] [55CA2962]
05 73,9 [390B00EF] [4BDD3839]
06 100,0 [CDD838F4] [5ED4C8D0]
07 84,6 [64820795] [C8C33EC2]
08 100,0 [4F7D7B0F] [E64AC3F9]
09 85,9 [3AA5042A] [0AB82290]
10 90,6 [0AA7A66A] [F3C870E8]


Joan Jett: Collection (1980 - 2013) [12CD, Japanese Ed. + DVD]

Tracklist CD6 - 1988 - Up Your Alley (P32P-20188):

01. I Hate Myself For Loving You (04:08)
02. Ridin’ With James Dean (03:17)
03. Little Liar (04:01)
04. Tulane (02:54)
05. I Wanna Be Your Dog (05:11)
06. I Still Dream About You (03:23)
07. You Want In, I Want Out (04:15)
08. Just Like In The Movies (03:05)
09. Desire (03:53)
10. Back It Up (03:31)
11. Play That Song Again (03:45)

Exact Audio Copy V1.0 beta 1 from 15. November 2010

EAC extraction logfile from 16. February 2012, 2:43

Joan Jett & The Blackhearts / Up Your Alley (P32P-20188)

Used drive : PIONEER DVD-RW DVR-219L Adapter: 6 ID: 0

Read mode : Secure
Utilize accurate stream : Yes
Defeat audio cache : Yes
Make use of C2 pointers : No

Read offset correction : 6
Overread into Lead-In and Lead-Out : No
Fill up missing offset samples with silence : Yes
Delete leading and trailing silent blocks : No
Null samples used in CRC calculations : Yes
Used interface : Installed external ASPI interface

Used output format : Internal WAV Routines
Sample format : 44.100 Hz; 16 Bit; Stereo


TOC of the extracted CD

Track | Start | Length | Start sector | End sector
––––––––––––––––––––––––––––-
1 | 0:00.37 | 4:08.03 | 37 | 18639
2 | 4:08.40 | 3:17.62 | 18640 | 33476
3 | 7:26.27 | 4:01.20 | 33477 | 51571
4 | 11:27.47 | 2:54.60 | 51572 | 64681
5 | 14:22.32 | 5:11.65 | 64682 | 88071
6 | 19:34.22 | 3:23.08 | 88072 | 103304
7 | 22:57.30 | 4:15.10 | 103305 | 122439
8 | 27:12.40 | 3:05.25 | 122440 | 136339
9 | 30:17.65 | 3:53.27 | 136340 | 153841
10 | 34:11.17 | 3:31.63 | 153842 | 169729
11 | 37:43.05 | 3:45.47 | 169730 | 186651


Range status and errors

Selected range

Filename C:\_www.AvaxHome.ru\JOAN JETT\1988- Up Your Alley [1st Japanese pressing]\Joan Jett & The Blackhearts - Up Your Alley (P32P-20188).wav

Peak level 100.0 %
Extraction speed 0.6 X
Range quality 100.0 %
Test CRC A04A7F8D
Copy CRC A04A7F8D
Copy OK

No errors occurred


AccurateRip summary

Track 1 cannot be verified as accurate (confidence 2) [9726E716], AccurateRip returned [24F8CEE2]
Track 2 cannot be verified as accurate (confidence 2) [F903A5A9], AccurateRip returned [F76EFFF2]
Track 3 cannot be verified as accurate (confidence 2) [1DE98C87], AccurateRip returned [E9F2B90A]
Track 4 cannot be verified as accurate (confidence 2) [21C31ACC], AccurateRip returned [5992B099]
Track 5 cannot be verified as accurate (confidence 2) [7A75F04B], AccurateRip returned [8063D293]
Track 6 cannot be verified as accurate (confidence 2) [7CF862A9], AccurateRip returned [B6F068D8]
Track 7 cannot be verified as accurate (confidence 2) [C9431EAF], AccurateRip returned [656AE780]
Track 8 cannot be verified as accurate (confidence 2) [3ED9640D], AccurateRip returned [358E6B81]
Track 9 cannot be verified as accurate (confidence 2) [F9FDAB13], AccurateRip returned [4BF5AF43]
Track 10 cannot be verified as accurate (confidence 2) [0287B6CD], AccurateRip returned [DABB1DD9]
Track 11 cannot be verified as accurate (confidence 2) [DE6E58CE], AccurateRip returned [F1D07CBA]

No tracks could be verified as accurate
You may have a different pressing from the one(s) in the database

End of status report

==== Log checksum 52EF16CE3C412321A9EFCF2044B9C71B2B26A2D01F77DEB551FDA13F93245E34 ====


[CUETools log; Date: 14.08.2019 12:46:24; Version: 2.1.4]
Pregap length 00:00:37.
[AccurateRip ID: 00113955-00951773-9f09b80b] found.
Track [ CRC | V2 ] Status
01 [9726e716|252a2620] (0+0/7) No match
02 [f903a5a9|a6bcb8a7] (0+0/7) No match
03 [1de98c87|c89dba0c] (0+0/7) No match
04 [21c31acc|ca7ac677] (0+0/7) No match
05 [7a75f04b|52356421] (0+0/7) No match
06 [7cf862a9|bc2853fd] (0+0/7) No match
07 [c9431eaf|4f73042d] (0+0/7) No match
08 [3ed9640d|18b0bace] (0+0/7) No match
09 [f9fdab13|9f6fbe57] (0+0/7) No match
10 [0287b6cd|03cebd51] (0+0/7) No match
11 [de6e58ce|d9658c0e] (0+0/7) No match
Offsetted by -2874:
01 [24f8cee2] (2/7) Accurately ripped
02 [f76efff2] (2/7) Accurately ripped
03 [e9f2b90a] (2/7) Accurately ripped
04 [5992b099] (2/7) Accurately ripped
05 [8063d293] (2/7) Accurately ripped
06 [b6f068d8] (2/7) Accurately ripped
07 [656ae780] (2/7) Accurately ripped
08 [358e6b81] (2/7) Accurately ripped
09 [4bf5af43] (2/7) Accurately ripped
10 [dabb1dd9] (2/7) Accurately ripped
11 [f1d07cba] (2/7) Accurately ripped

Track Peak [ CRC32 ] [W/O NULL] [ LOG ]
– 100,0 [A04A7F8D] [2C5BE60B] CRC32
01 82,9 [1AC12A92] [FC4CE1A1]
02 100,0 [6A41181E] [21D21B2B]
03 89,3 [42433885] [B100EA64]
04 100,0 [989C59AF] [2F7EB7DD]
05 99,9 [B3A05A26] [73395D50]
06 91,8 [FFE7F725] [8D889B3B]
07 90,1 [629ADC05] [F71FD6BF]
08 97,6 [61464DED] [BC577415]
09 88,4 [6AA13158] [CBD7FDF0]
10 98,2 [DD769559] [6B7DD746]
11 87,1 [F656CBD2] [34FB4710]


Joan Jett: Collection (1980 - 2013) [12CD, Japanese Ed. + DVD]

Tracklist CD7 - 1990 - The Hit List (VICP-5144):

01. Dirty Deeds (AC/DC cover)
02. Love Hurts (The Everly Brothers cover)
03. Pretty Vacant (The Sex Pistols cover)
04. Celluloid Heroes (The Kinks cover)
05. Tush (ZZ Top cover)
06. Time Has Come Today (The Chambers Brothers cover)
07. Up From The Skies (The Jimi Hendrix Experience cover)
08. Have You Ever Seen The Rain? (Creedence Clearwater Revival cover)
09. Love Me Two Times (The Doors cover)
10. Roadrunner USA (1990 Version) (The Modern Lovers cover)
11. Let It Bleed (The Rolling Stones cover) - Bonus track for Japan
12. Dirty Deeds Done Dirt Cheap (Extended Version) - Bonus track for Japan

Exact Audio Copy V1.0 beta 1 from 15. November 2010

EAC extraction logfile from 17. February 2012, 1:22

Joan Jett / The Hit List (VICP-5144)

Used drive : PIONEER DVD-RW DVR-219L Adapter: 6 ID: 0

Read mode : Secure
Utilize accurate stream : Yes
Defeat audio cache : Yes
Make use of C2 pointers : No

Read offset correction : 6
Overread into Lead-In and Lead-Out : No
Fill up missing offset samples with silence : Yes
Delete leading and trailing silent blocks : No
Null samples used in CRC calculations : Yes
Used interface : Installed external ASPI interface

Used output format : Internal WAV Routines
Sample format : 44.100 Hz; 16 Bit; Stereo


TOC of the extracted CD

Track | Start | Length | Start sector | End sector
––––––––––––––––––––––––––––-
1 | 0:00.37 | 3:19.13 | 37 | 14974
2 | 3:19.50 | 3:47.27 | 14975 | 32026
3 | 7:07.02 | 3:24.53 | 32027 | 47379
4 | 10:31.55 | 5:28.42 | 47380 | 72021
5 | 16:00.22 | 2:23.25 | 72022 | 82771
6 | 18:23.47 | 4:13.73 | 82772 | 101819
7 | 22:37.45 | 3:01.30 | 101820 | 115424
8 | 25:39.00 | 3:34.17 | 115425 | 131491
9 | 29:13.17 | 3:06.45 | 131492 | 145486
10 | 32:19.62 | 3:37.28 | 145487 | 161789
11 | 35:57.15 | 4:20.70 | 161790 | 181359
12 | 40:18.10 | 4:33.40 | 181360 | 201874


Range status and errors

Selected range

Filename C:\_www.AvaxHome.ru\JOAN JETT\1990- Hit List [1st Japanese pressing]\Joan Jett - The Hit List (VICP-5144).wav

Peak level 97.7 %
Extraction speed 0.6 X
Range quality 100.0 %
Test CRC 122D6219
Copy CRC 122D6219
Copy OK

No errors occurred


AccurateRip summary

Track 1 not present in database
Track 2 not present in database
Track 3 not present in database
Track 4 not present in database
Track 5 not present in database
Track 6 not present in database
Track 7 not present in database
Track 8 not present in database
Track 9 not present in database
Track 10 not present in database
Track 11 not present in database
Track 12 not present in database

None of the tracks are present in the AccurateRip database

End of status report

==== Log checksum BF45F8D8270FCE7E7A4913EC756FF9186259DB5F474C67F8658FBB38073E7BA0 ====


[CUETools log; Date: 14.08.2019 13:52:50; Version: 2.1.4]
Pregap length 00:00:37.
[AccurateRip ID: 0013a90e-00b78511-8f0a830c] found.
Track [ CRC | V2 ] Status
01 [39b6a6fd|1d76a5fe] (0+1/1) Accurately ripped
02 [bfdb08e0|e01eb93a] (0+1/1) Accurately ripped
03 [c4f9e160|01abc8bd] (0+1/1) Accurately ripped
04 [e1ce1eb6|32eaf687] (0+1/1) Accurately ripped
05 [9e4e7b1b|60bc5efe] (0+1/1) Accurately ripped
06 [3a05d986|12dab29a] (0+1/1) Accurately ripped
07 [12e7b39b|6f61b4d6] (0+1/1) Accurately ripped
08 [cfa76d07|f7c92260] (0+1/1) Accurately ripped
09 [14c42655|e9d73a66] (0+1/1) Accurately ripped
10 [31dc9abc|3fff30ba] (0+1/1) Accurately ripped
11 [93cf8931|cfb5ed06] (0+1/1) Accurately ripped
12 [4bba7d04|9a417071] (0+1/1) Accurately ripped

Track Peak [ CRC32 ] [W/O NULL] [ LOG ]
– 97,7 [122D6219] [616431CB] CRC32
01 97,7 [C168B7E6] [34462282]
02 97,7 [4C2E259B] [D225A388]
03 97,7 [DAD79FC0] [25524DF7]
04 97,7 [6B482D32] [C60C2344]
05 97,7 [66579242] [EB2AB1FD]
06 97,7 [B9E919E5] [2DFC13A2]
07 97,7 [E06E90A3] [1E983A40]
08 97,7 [402510AE] [DCC74746]
09 97,7 [A7E1882E] [D9A3A339]
10 97,7 [92C5BEDD] [55450765]
11 97,7 [5F7F476E] [926A0052]
12 97,7 [9B329808] [8B20ED82]


Joan Jett: Collection (1980 - 2013) [12CD, Japanese Ed. + DVD]

Tracklist CD8 - 1991 - Notorius (VICP-62694):

01. Backlash
02. Ashes In The Wind
03. The Only Good Thing (You Ever Said Was Goodbye)
04. Lie To Me
05. Don't Surrender
06. Goodbye
07. Machismo
08. Treadin' Water
09. I Want You
10. Wait For Me
11. Misunderstood [Bonus track for Japan]

Exact Audio Copy V1.0 beta 1 from 15. November 2010

EAC extraction logfile from 3. December 2012, 14:24

Joan Jett And The Blackhearts / Notorius (Japan 2004)

Used drive : PLEXTOR DVDR PX-760A Adapter: 10 ID: 0

Read mode : Secure
Utilize accurate stream : Yes
Defeat audio cache : Yes
Make use of C2 pointers : No

Read offset correction : 30
Overread into Lead-In and Lead-Out : No
Fill up missing offset samples with silence : Yes
Delete leading and trailing silent blocks : No
Null samples used in CRC calculations : Yes
Used interface : Installed external ASPI interface

Used output format : Internal WAV Routines
Sample format : 44.100 Hz; 16 Bit; Stereo


TOC of the extracted CD

Track | Start | Length | Start sector | End sector
––––––––––––––––––––––––––––-
1 | 0:00.00 | 3:28.22 | 0 | 15621
2 | 3:28.22 | 4:21.68 | 15622 | 35264
3 | 7:50.15 | 4:26.37 | 35265 | 55251
4 | 12:16.52 | 4:30.25 | 55252 | 75526
5 | 16:47.02 | 4:12.20 | 75527 | 94446
6 | 20:59.22 | 4:01.43 | 94447 | 112564
7 | 25:00.65 | 4:15.20 | 112565 | 131709
8 | 29:16.10 | 3:38.42 | 131710 | 148101
9 | 32:54.52 | 3:04.38 | 148102 | 161939
10 | 35:59.15 | 5:15.52 | 161940 | 185616
11 | 41:14.67 | 3:55.33 | 185617 | 203274
12 | 47:42.25 | 11:47.32 | 214675 | 267731


Range status and errors

Selected range

Filename C:\_www.AvaxHome.ru\JOAN JETT\1991- Notorious [Japanese Reissue 2004]\Joan Jett & The Blackhearts - Notorius (VICP-62694).wav

Peak level 100.0 %
Extraction speed 0.6 X
Range quality 99.9 %
Test CRC D0FBAEB6
Copy CRC D0FBAEB6
Copy OK

No errors occurred


AccurateRip summary

Track 1 not present in database
Track 2 not present in database
Track 3 not present in database
Track 4 not present in database
Track 5 not present in database
Track 6 not present in database
Track 7 not present in database
Track 8 not present in database
Track 9 not present in database
Track 10 not present in database
Track 11 not present in database

None of the tracks are present in the AccurateRip database

End of status report

==== Log checksum B40DF0DD7B56E67823D85FAA66E79DE2609C5C07A0525B354457050ACD290147 ====


[CUETools log; Date: 14.08.2019 13:15:54; Version: 2.1.4]
CD-Extra data track length 11:47:32.
[AccurateRip ID: 001396c3-00ad3369-9d0df10c] found.
Track [ CRC | V2 ] Status
01 [f8238b9e|6dbd04cd] (1+1/2) Accurately ripped
02 [8ecfa231|87dd8f96] (1+1/2) Accurately ripped
03 [5450d2f0|01fa7cd6] (1+1/2) Accurately ripped
04 [f7d77eb9|04cb20b3] (1+1/2) Accurately ripped
05 [161745d5|a6ac1a6f] (1+1/2) Accurately ripped
06 [fea9b16f|713da8c7] (1+1/2) Accurately ripped
07 [9b6db2bf|45e4e138] (1+1/2) Accurately ripped
08 [4eab784d|0a6060a5] (1+1/2) Accurately ripped
09 [d3232469|adf2b3ed] (1+1/2) Accurately ripped
10 [0809899e|310cc69e] (1+1/2) Accurately ripped
11 [dd5a9e05|b5ff17b2] (1+1/2) Accurately ripped

Track Peak [ CRC32 ] [W/O NULL] [ LOG ]
– 100,0 [D0FBAEB6] [D854FDB1] CRC32
01 100,0 [B71BC04B] [21987C73]
02 100,0 [C5AE9456] [9272280E]
03 90,5 [E7D7A72F] [54C0EF76]
04 91,6 [CE447CFF] [32BDD1AC]
05 100,0 [0FFAC138] [3F728FC3]
06 100,0 [5E0C6A34] [11AF01DA]
07 97,7 [331E456D] [74D3AC75]
08 97,3 [E86139C6] [5EDB49D1]
09 97,3 [27A683EE] [85C49E43]
10 100,0 [DDBDC6A8] [C7ABA971]
11 97,3 [46BA8B21] [CC5F63A2]


Joan Jett: Collection (1980 - 2013) [12CD, Japanese Ed. + DVD]

Tracklist CD9 - 1981 - I Love Rock 'N Roll (EP):

01. I Love Rock ‘N Roll (Remix) (03:00)
02. Love Is Pain (Live at the Litz) (03:50)
03. Talkin’ Bout My Baby (Live GBGB’s) (03:53)
04. The Only Good Thing (You Ever Said Was Goodbye) (03:55)

Exact Audio Copy V1.0 beta 1 from 15. November 2010

EAC extraction logfile from 20. February 2012, 20:58

Joan Jett & The Blackhearts / I Love Rock 'N Roll (CD-EP)

Used drive : PIONEER DVD-RW DVR-219L Adapter: 6 ID: 0

Read mode : Secure
Utilize accurate stream : Yes
Defeat audio cache : Yes
Make use of C2 pointers : No

Read offset correction : 6
Overread into Lead-In and Lead-Out : No
Fill up missing offset samples with silence : Yes
Delete leading and trailing silent blocks : No
Null samples used in CRC calculations : Yes
Used interface : Installed external ASPI interface

Used output format : Internal WAV Routines
Sample format : 44.100 Hz; 16 Bit; Stereo


TOC of the extracted CD

Track | Start | Length | Start sector | End sector
––––––––––––––––––––––––––––-
1 | 0:00.37 | 3:00.13 | 37 | 13549
2 | 3:00.50 | 3:50.25 | 13550 | 30824
3 | 6:51.00 | 3:53.15 | 30825 | 48314
4 | 10:44.15 | 3:55.22 | 48315 | 65961


Range status and errors

Selected range

Filename C:\_www.AvaxHome.ru\JOAN JETT\1992- I Love Rock 'N Roll 92 [Japan only EP]\Joan Jett & The Blackhearts - I Love Rock 'N Roll (VICP-15016).wav

Peak level 97.3 %
Extraction speed 1.4 X
Range quality 100.0 %
Test CRC 6C585EAE
Copy CRC 6C585EAE
Copy OK

No errors occurred


AccurateRip summary

Track 1 accurately ripped (confidence 1) [87F6E3DC]
Track 2 accurately ripped (confidence 1) [3929B216]
Track 3 accurately ripped (confidence 1) [A6F736C2]
Track 4 accurately ripped (confidence 1) [63526B17]

All tracks accurately ripped

End of status report

==== Log checksum C11F61BAD543BC8D58F570A1193EC7D774CEE9A596FFFD863D395C7EFD4F46E0 ====


[CUETools log; Date: 14.08.2019 13:07:08; Version: 2.1.4]
Pregap length 00:00:37.
[AccurateRip ID: 00026be1-0009ce7a-25036f04] found.
Track [ CRC | V2 ] Status
01 [87f6e3dc|d7230499] (1+0/1) Accurately ripped
02 [3929b216|bd36e08a] (1+0/1) Accurately ripped
03 [a6f736c2|4e42e4b6] (1+0/1) Accurately ripped
04 [63526b17|52935249] (1+0/1) Accurately ripped

Track Peak [ CRC32 ] [W/O NULL] [ LOG ]
– 97,3 [6C585EAE] [9C04FA50] CRC32
01 97,3 [92C7C29B] [22B3C049]
02 94,4 [B4BC5F37] [DAB4D723]
03 94,4 [23C89785] [EABD79C5]
04 94,4 [84C241E1] [97C8A8F8]


Joan Jett: Collection (1980 - 2013) [12CD, Japanese Ed. + DVD]

Tracklist CD10 - 1994 - Pure And Simple (VICP-62696):

01. Go Home
02. Eye To Eye
03. Spinster
04. Torture
05. Rubber & Glue
06. As I Am
07. Hostility [Bonus track for Japan]
08. Activity Grrrl
09. Insecure
10. Wonderin'
11. Consumed
12. World Of Denial [Bonus track for Japan]
13. You Got A Problem
14. Brighter Day

Exact Audio Copy V1.0 beta 1 from 15. November 2010

EAC extraction logfile from 23. February 2012, 23:29

Joan Jett & The Blackhearts / Pure And Simple (VICP-62696)

Used drive : PIONEER DVD-RW DVR-219L Adapter: 6 ID: 0

Read mode : Secure
Utilize accurate stream : Yes
Defeat audio cache : Yes
Make use of C2 pointers : No

Read offset correction : 6
Overread into Lead-In and Lead-Out : No
Fill up missing offset samples with silence : Yes
Delete leading and trailing silent blocks : No
Null samples used in CRC calculations : Yes
Used interface : Installed external ASPI interface

Used output format : Internal WAV Routines
Sample format : 44.100 Hz; 16 Bit; Stereo


TOC of the extracted CD

Track | Start | Length | Start sector | End sector
––––––––––––––––––––––––––––-
1 | 0:00.00 | 2:43.02 | 0 | 12226
2 | 2:43.02 | 3:31.60 | 12227 | 28111
3 | 6:14.62 | 2:44.30 | 28112 | 40441
4 | 8:59.17 | 3:35.05 | 40442 | 56571
5 | 12:34.22 | 3:18.63 | 56572 | 71484
6 | 15:53.10 | 4:31.62 | 71485 | 91871
7 | 20:24.72 | 3:55.30 | 91872 | 109526
8 | 24:20.27 | 3:45.00 | 109527 | 126401
9 | 28:05.27 | 3:10.73 | 126402 | 140724
10 | 31:16.25 | 4:52.22 | 140725 | 162646
11 | 36:08.47 | 4:40.25 | 162647 | 183671
12 | 40:48.72 | 4:20.58 | 183672 | 203229
13 | 45:09.55 | 3:58.50 | 203230 | 221129
14 | 49:08.30 | 6:08.60 | 221130 | 248789
15 | 57:49.15 | 9:52.04 | 260190 | 304593


Range status and errors

Selected range

Filename C:\_www.AvaxHome.ru\JOAN JETT\1994- Pure & Simple (Japanese Reissue 2006)\Joan Jett & The Blackhearts - Pure And Simple (VICP-62696).wav

Peak level 100.0 %
Extraction speed 1.4 X
Range quality 100.0 %
Test CRC 6E08704D
Copy CRC 6E08704D
Copy OK

No errors occurred


AccurateRip summary

Track 1 not present in database
Track 2 not present in database
Track 3 not present in database
Track 4 not present in database
Track 5 not present in database
Track 6 not present in database
Track 7 not present in database
Track 8 not present in database
Track 9 not present in database
Track 10 not present in database
Track 11 not present in database
Track 12 not present in database
Track 13 not present in database
Track 14 not present in database

None of the tracks are present in the AccurateRip database

End of status report

==== Log checksum C8A8449FBEFD3D2537AEF590AA0A3F0B86CCCD9CC7E5FEDAF31696389FD6B45E ====


[CUETools log; Date: 14.08.2019 15:25:27; Version: 2.1.4]
CD-Extra data track length 09:52:04.
[AccurateRip ID: 001abe3d-012733f2-d20fdd0f] disk not present in database.

Track Peak [ CRC32 ] [W/O NULL] [ LOG ]
– 100,0 [6E08704D] [FA1AC8DA] CRC32
01 97,7 [126845CA] [BE43C282]
02 97,7 [89163913] [5B08CC20]
03 97,7 [6763FC9B] [E215CBEB]
04 97,7 [B0E9A071] [4C85B1AD]
05 100,0 [8A23EDD6] [A547E952]
06 97,7 [1E180340] [3BE14BC1]
07 97,7 [D9574AFF] [15A0B49A]
08 99,3 [83005185] [47E94D61]
09 98,3 [A8282E5C] [B1E349D2]
10 98,2 [AD0D52E3] [33990A78]
11 100,0 [7D6CDA7D] [63F60910]
12 97,7 [9263419A] [25E79624]
13 97,7 [7EFD2EF0] [011345AF]
14 97,7 [A14304FD] [6E2124D1]


Joan Jett: Collection (1980 - 2013) [12CD, Japanese Ed. + DVD]

Tracklist CD11 - 2004 - Naked (VICP-62690):

01. Naked
02. Bad Time
03. Fetish
04. Androgynous
05. Science Fiction, Double Feature [Punk Version]
06. Right In The Middle
07. Turn It Around
08. Everyone Knows
09. Baby Blue
10. Kiss On The Lips
11. Watersign
12. Tube Talkin'
13. Season Of The Witch
14. Bad Time [Monster Mix]
15. Can't Live Without You
16. Five

Exact Audio Copy V1.0 beta 1 from 15. November 2010

EAC extraction logfile from 1. December 2012, 14:58

Joan Jett / Naked

Used drive : PLEXTOR DVDR PX-760A Adapter: 10 ID: 0

Read mode : Secure
Utilize accurate stream : Yes
Defeat audio cache : Yes
Make use of C2 pointers : No

Read offset correction : 30
Overread into Lead-In and Lead-Out : No
Fill up missing offset samples with silence : Yes
Delete leading and trailing silent blocks : No
Null samples used in CRC calculations : Yes
Used interface : Installed external ASPI interface

Used output format : Internal WAV Routines
Sample format : 44.100 Hz; 16 Bit; Stereo


TOC of the extracted CD

Track | Start | Length | Start sector | End sector
––––––––––––––––––––––––––––-
1 | 0:00.00 | 4:07.05 | 0 | 18529
2 | 4:07.05 | 4:59.15 | 18530 | 40969
3 | 9:06.20 | 3:22.03 | 40970 | 56122
4 | 12:28.23 | 3:08.25 | 56123 | 70247
5 | 15:36.48 | 3:54.27 | 70248 | 87824
6 | 19:31.00 | 3:48.13 | 87825 | 104937
7 | 23:19.13 | 3:44.50 | 104938 | 121787
8 | 27:03.63 | 3:09.60 | 121788 | 136022
9 | 30:13.48 | 4:05.17 | 136023 | 154414
10 | 34:18.65 | 3:21.55 | 154415 | 169544
11 | 37:40.45 | 3:10.03 | 169545 | 183797
12 | 40:50.48 | 3:37.30 | 183798 | 200102
13 | 44:28.03 | 5:03.17 | 200103 | 222844
14 | 49:31.20 | 4:59.60 | 222845 | 245329
15 | 54:31.05 | 2:34.28 | 245330 | 256907
16 | 57:05.33 | 5:16.05 | 256908 | 280612


Range status and errors

Selected range

Filename C:\_www.AvaxHome.ru\JOAN JETT\2004- Naked [Japan only release]\Joan Jett - Naked (VICP-62690).wav

Peak level 99.9 %
Extraction speed 0.2 X
Range quality 100.0 %
Test CRC 8E4B8C00
Copy CRC 8E4B8C00
Copy OK

No errors occurred


AccurateRip summary

Track 1 accurately ripped (confidence 5) [ED36F168]
Track 2 accurately ripped (confidence 5) [4FE9080E]
Track 3 accurately ripped (confidence 5) [947786EA]
Track 4 accurately ripped (confidence 5) [DFBD5D10]
Track 5 accurately ripped (confidence 4) [DDAF0D15]
Track 6 accurately ripped (confidence 5) [C3767F06]
Track 7 accurately ripped (confidence 5) [18831DD0]
Track 8 accurately ripped (confidence 4) [DA993973]
Track 9 accurately ripped (confidence 5) [D12952D0]
Track 10 accurately ripped (confidence 5) [F12EB903]
Track 11 accurately ripped (confidence 4) [7F6E7DC8]
Track 12 accurately ripped (confidence 5) [319564E5]
Track 13 accurately ripped (confidence 5) [E038F41B]
Track 14 accurately ripped (confidence 5) [CCDD82F7]
Track 15 accurately ripped (confidence 5) [B74F6F26]
Track 16 accurately ripped (confidence 5) [7BE00536]

All tracks accurately ripped

End of status report

==== Log checksum 2F6F963E0764B5ECB284906CA10218654888A1DEEFA589E8357CC2B7C9B4F1B7 ====


[CUETools log; Date: 14.08.2019 13:56:26; Version: 2.1.4]
[AccurateRip ID: 0023dbb2-01aca867-d50e9d10] found.
Track [ CRC | V2 ] Status
01 [ed36f168|ddb197ee] (5+4/9) Accurately ripped
02 [4fe9080e|2301d4a9] (5+4/9) Accurately ripped
03 [947786ea|5d3575e0] (5+4/9) Accurately ripped
04 [dfbd5d10|1d03ab66] (5+4/9) Accurately ripped
05 [ddaf0d15|41d3ea79] (4+4/8) Accurately ripped
06 [c3767f06|39939be5] (5+4/9) Accurately ripped
07 [18831dd0|57c99721] (5+4/9) Accurately ripped
08 [da993973|7f3026f1] (4+4/8) Accurately ripped
09 [d12952d0|5cd5b01e] (5+4/9) Accurately ripped
10 [f12eb903|3b4e3457] (5+4/9) Accurately ripped
11 [7f6e7dc8|3e21501c] (4+4/8) Accurately ripped
12 [319564e5|a7e5aea9] (5+4/9) Accurately ripped
13 [e038f41b|7b5dd6c6] (5+4/9) Accurately ripped
14 [ccdd82f7|b87ceb73] (5+4/9) Accurately ripped
15 [b74f6f26|846f5d2a] (5+4/9) Accurately ripped
16 [7be00536|25041be1] (5+4/9) Accurately ripped

Track Peak [ CRC32 ] [W/O NULL] [ LOG ]
– 99,9 [8E4B8C00] [72B43F7B] CRC32
01 86,9 [7B2DC6EF] [C9FDE31A]
02 99,9 [8245EB21] [69593FDE]
03 75,5 [38D2DE1C] [CE1D52AF]
04 61,6 [D9B30B7D] [5CC21CA3]
05 76,0 [6E5DC9D0] [724E01BE]
06 73,1 [B0ABE351] [14CBFC4A]
07 89,0 [929283F3] [1D4F4C18]
08 96,9 [563AFA19] [4CBDB578]
09 83,3 [8AEA8CC5] [7C5384B9]
10 77,9 [8DF1643D] [0573491B]
11 92,9 [58501778] [51C7223B]
12 79,6 [899EDCF7] [899CFC35]
13 87,9 [4B5EEC40] [0D039A4D]
14 93,2 [CC19FAB4] [4950EC18]
15 83,0 [00703261] [CA3B3CF6]
16 98,7 [F516603B] [E2BF0C95]


Joan Jett: Collection (1980 - 2013) [12CD, Japanese Ed. + DVD]

Tracklist CD12 - 2013 - Unvarnished (VICP-65199):

01. Any Weather (606 Version)
02. TMI
03. Soulmates To Strangers
04. Make It Back
05. Hard To Grow Up
06. Fragile
07. Reality Mentality
08. Bad As We Can Be
09. Different
10. Everybody Needs A Hero
Bonus Track For Japan
11. I Know What I Know
12. Any Weather (Blackhearts Version)
13. Seriously
14. Any Weather (SIR Version)
15. Crimson And Clover (Live)

Exact Audio Copy V1.0 beta 1 from 15. November 2010

EAC extraction logfile from 6. January 2014, 23:36

Joan Jett & The Blackhearts / Unvarnished [Japanese Release]

Used drive : PIONEER DVD-RW DVR-219L Adapter: 5 ID: 0

Read mode : Secure
Utilize accurate stream : Yes
Defeat audio cache : Yes
Make use of C2 pointers : No

Read offset correction : 6
Overread into Lead-In and Lead-Out : No
Fill up missing offset samples with silence : Yes
Delete leading and trailing silent blocks : No
Null samples used in CRC calculations : Yes
Used interface : Installed external ASPI interface

Used output format : Internal WAV Routines
Sample format : 44.100 Hz; 16 Bit; Stereo


TOC of the extracted CD

Track | Start | Length | Start sector | End sector
––––––––––––––––––––––––––––-
1 | 0:00.00 | 3:24.25 | 0 | 15324
2 | 3:24.25 | 3:50.00 | 15325 | 32574
3 | 7:14.25 | 3:15.00 | 32575 | 47199
4 | 10:29.25 | 3:17.00 | 47200 | 61974
5 | 13:46.25 | 4:24.00 | 61975 | 81774
6 | 18:10.25 | 3:42.00 | 81775 | 98424
7 | 21:52.25 | 3:08.00 | 98425 | 112524
8 | 25:00.25 | 3:56.00 | 112525 | 130224
9 | 28:56.25 | 3:38.00 | 130225 | 146574
10 | 32:34.25 | 2:34.00 | 146575 | 158124
11 | 35:08.25 | 3:22.00 | 158125 | 173274
12 | 38:30.25 | 3:34.00 | 173275 | 189324
13 | 42:04.25 | 3:49.00 | 189325 | 206499
14 | 45:53.25 | 3:26.00 | 206500 | 221949
15 | 49:19.25 | 4:10.18 | 221950 | 240717


Range status and errors

Selected range

Filename G:\_AvaxHome__Rehabilly\Joan Jett & The Blackhearts - Unvarnished (2013) [Japanese Release]\Joan Jett & The Blackhearts - Unvarnished (VICP-65199).wav

Peak level 98.8 %
Extraction speed 0.3 X
Range quality 100.0 %
Test CRC 26B4F445
Copy CRC 26B4F445
Copy OK

No errors occurred


AccurateRip summary

Track 1 not present in database
Track 2 not present in database
Track 3 not present in database
Track 4 not present in database
Track 5 not present in database
Track 6 not present in database
Track 7 not present in database
Track 8 not present in database
Track 9 not present in database
Track 10 not present in database
Track 11 not present in database
Track 12 not present in database
Track 13 not present in database
Track 14 not present in database
Track 15 not present in database

None of the tracks are present in the AccurateRip database

End of status report

==== Log checksum CEF4F002B69022D33B7C7A16ADD14DD9AEC1FDDAAB3D042CE92C389D4188D177 ====


[CUETools log; Date: 14.08.2019 14:03:36; Version: 2.1.4]
[AccurateRip ID: 001d3e4d-014b0f21-b80c890f] found.
Track [ CRC | V2 ] Status
01 [fd0566e6|7c37cbd4] (0+5/5) Accurately ripped
02 [60d3765f|e6e6ebcb] (0+5/5) Accurately ripped
03 [2f447638|1821f1c8] (0+5/5) Accurately ripped
04 [4d759c0d|9281c40d] (0+5/5) Accurately ripped
05 [c9a2d253|ff25e30d] (0+5/5) Accurately ripped
06 [9decc1fd|ef63c47e] (0+5/5) Accurately ripped
07 [82fc76b3|351905a4] (0+5/5) Accurately ripped
08 [ab70e3aa|b4215293] (0+5/5) Accurately ripped
09 [b1da1a54|7160b266] (0+5/5) Accurately ripped
10 [d66b81c6|aace963b] (0+5/5) Accurately ripped
11 [17aae505|f534c3da] (0+5/5) Accurately ripped
12 [d46bc548|0ddfc6aa] (0+5/5) Accurately ripped
13 [a498aeb5|eb59a302] (0+5/5) Accurately ripped
14 [c737f408|46aae0be] (0+5/5) Accurately ripped
15 [9e42e155|89d22eaf] (0+5/5) Accurately ripped

Track Peak [ CRC32 ] [W/O NULL] [ LOG ]
– 98,8 [26B4F445] [64D08DB1] CRC32
01 98,8 [69016BBF] [17EAD004]
02 98,8 [2C5A728C] [22FC29C6]
03 98,8 [B5D19154] [90108570]
04 98,8 [EB7AF76B] [4A2453C6]
05 98,8 [F569673C] [7934433D]
06 98,8 [4DB6F746] [348978FD]
07 98,8 [00658016] [7764104D]
08 98,8 [7D867592] [999DAF76]
09 98,8 [F016CF61] [7D4F40D3]
10 98,8 [5637A305] [599E4034]
11 98,8 [1838837F] [7D9AF1BB]
12 98,8 [7D5158C8] [EE80E773]
13 98,8 [CE9D7BDB] [281F1323]
14 98,8 [B81476FB] [34C0FC92]
15 98,8 [B7706FFB] [EE223213]


Joan Jett: Collection (1980 - 2013) [12CD, Japanese Ed. + DVD]

Tracklist DVD - 2001 - Live!:

1.Bad Reputation
2.Cherry Bomb
3.Light of Day
4.Crimson and Clover
5.I Hate Myself for Loving You
6.Love Is All Around
7.Do You Wanna Touch Me (Oh Yeah)
8.Roadrunner
9.Friend To Friend
10.I Love Rock N' Roll
11.Androgynous
12.Fetish
13.Real Wild Child
14.Everyday People
Бонус
1.Real Wild Child
2.Do You Wanna Touch Me (Oh Yeah)

Title: DVD1. J.Jett & Blackhearts
Size: 2.66 Gb ( 2 793 480,00 KBytes ) - DVD-5
Enabled regions: 1, 2, 3, 4, 5, 6, 7, 8

VTS_01 :
Play Length: 00:44:00
Video: NTSC 4:3 (720x480) VBR
Audio:
Not specified (Dolby AC3, 6 ch)
Not specified (Dolby AC3, 2 ch)

VTS_02 :
Play Length: 00:00:19+00:00:40
Video: NTSC 4:3 (720x480) VBR
Audio:
Not specified (Dolby AC3, 2 ch)
Subtitles:
Not specified

VTS_03 :
Play Length: 00:00:02+00:01:57+00:04:29+00:00:02+00:00:00+00:01:41
Video: NTSC 4:3 (720x480) VBR
Audio:
Not specified (Dolby AC3, 2 ch)
Subtitles:
Not specified


Joan Jett: Collection (1980 - 2013) [12CD, Japanese Ed. + DVD]

Joan Jett: Collection (1980 - 2013) [12CD, Japanese Ed. + DVD]

Joan Jett: Collection (1980 - 2013) [12CD, Japanese Ed. + DVD]

Joan Jett: Collection (1980 - 2013) [12CD, Japanese Ed. + DVD]

Joan Jett: Collection (1980 - 2013) [12CD, Japanese Ed. + DVD]

All thanks go to Rehabilly

Joan Jett in my Blog

Download Joan Jett: Collection (1980 - 2013):