Joe Bonamassa - Different Shades Of Blue (2014) {Best Buy Exclusive Edition}

Posted By: popsakov
Joe Bonamassa - Different Shades Of Blue (2014) {Best Buy Exclusive Edition}

Joe Bonamassa - Different Shades Of Blue (2014)
EAC Rip | FLAC (Img) + Cue + Log ~ Mb | MP3 CBR320 ~ 158 Mb
Scans (JPG, 600 dpi) ~ 104 Mb | RAR 5% Recovery
Blues Rock, Blues, Rock | J&R Adventures #JRA 51157

Joe Bonamassa has moved far past his initial incarnation as a kid guitar wiz with a Stevie Ray Vaughan fascination, and has developed into an elegantly reverent guitarist and a fine singer as well, bringing a little R&B blue-eyed soul to the blues. For Different Shades of Blue, Bonamassa co-wrote songs with veteran Nashville songwriters Jeffrey Steele, Gary Nicholson, James House, Jerry Flowers, and Jonathan Cain, then took 11 of the songs and tracked them in Las Vegas at Studio at the Palms with producer Kevin Shirley and a solid band of studio musicians including Reese Wynans (organ, piano), Carmine Rojas (bass), Michael Rhodes (bass), Anton Fig (drums, percussion), Lenny Castro (percussion), Lee Thornburg (trumpet, trombone), Ron Dziubla (saxophone), the Bovaland Orchestra (strings), and background vocalists Doug Henthorn and Melanie Williams. Bonamassa used 20 different vintage guitars for the project, along with 13 different amps, and lists each one in the liner notes. Consequently, this is an album about guitar tones, as each song demands its own and Bonamassa empties the tool kit. The best songs here, like the poppy and R&B-laced "Love Ain't a Love Song," the hard-driving honky tonk blues "Never Give All Your Heart," and "Trouble Town," a slice of horn-driven garage blues, are vintage Bonamassa, blending all of his influences, from Stevie Ray Vaughan, Eric Clapton, and Rory Gallagher to Jimi Hendrix and Hank Garland, into his own voice for the blues. The clear highlight here, and undoubtedly already or soon to be a high point of Bonamassa's live shows, is the stately and powerful "Oh Beautiful!," which alternates between hushed vocals and slashing, soaring electric guitar breaks, a sort of 21st century version of Blind Willie Johnson adorned with tone washes and blistering guitar. It's a striking and timeless recording, and a great blues song by anyone's standards. The problem here, though, is that with the exception of the above songs, and maybe one or two others, the songs on Different Shades of Blue shade toward the generic side of things, and no matter how wonderful and gorgeous the guitar tones may be, it's hard to make a generic song sing memorably. [A Best Buy Exclusive added three bonus tracks.]
~ Steve Leggett, All Music

Joe Bonamassa - Different Shades Of Blue (2014) {Best Buy Exclusive Edition}


***************

Joe Bonamassa - Different Shades Of Blue (2014) {Best Buy Exclusive Edition}

Track List:

01. Hey Baby (New Rising Sun) [01:20]
02. Oh Beautiful! [05:29]
03. Love Ain't A Love Song [03:49]
04. Living On The Moon [03:22]
05. Heartache Follows Wherever I Go [04:34]
06. Never Give All Your Heart [05:25]
07. I Gave Up Everything For You, 'Cept The Blues [04:40]
08. Different Shades Of Blue [04:40]
09. Get Back My Tomorrow [04:47]
10. Trouble Town [04:57]
11. So, What Would I Do [05:28]
Bonus Tracks
12. Scarlet Town [07:58]
13. Better The Devil You Know [04:42]
14. Black Irish Eyes [04:33]

Exact Audio Copy V1.0 beta 3 from 29. August 2011

Отчёт EAC об извлечении, выполненном 19. октября 2014, 16:49

Joe Bonamassa / Different Shades Of Blue (BB Edition)

Дисковод: PLEXTOR DVDR PX-880SA Adapter: 1 ID: 0

Режим чтения : Достоверность
Использование точного потока : Да
Отключение кэша аудио : Да
Использование указателей C2 : Нет

Коррекция смещения при чтении : 6
Способность читать области Lead-in и Lead-out : Нет
Заполнение пропущенных сэмплов тишиной : Да
Удаление блоков с тишиной в начале и конце : Нет
При вычислениях CRC использовались нулевые сэмплы : Да
Интерфейс : Установленный внешний ASPI-интерфейс

Выходной формат : Пользовательский кодировщик
Выбранный битрейт : 1024 kBit/s
Качество : Высокий
Добавление ID3-тега : Нет
Утилита сжатия : C:\Program Files\Exact Audio Copy\FLAC\FLAC.EXE
Дополнительные параметры : -10 -V -T "ARTIST=%artist%" -T "ALBUM=%albumtitle%" -T "DATE=%year%" -T "GENRE=%genre%" -T "COMMENT=ripped by izia1956" %source%


TOC извлечённого CD

Трек | Старт | Длительность | Начальный сектор | Конечный сектор
––––––––––––––––––––––––––––––––––-
1 | 0:00.00 | 1:19.72 | 0 | 5996
2 | 1:19.72 | 5:28.65 | 5997 | 30661
3 | 6:48.62 | 3:48.39 | 30662 | 47800
4 | 10:37.26 | 3:21.23 | 47801 | 62898
5 | 13:58.49 | 4:33.66 | 62899 | 83439
6 | 18:32.40 | 5:24.37 | 83440 | 107776
7 | 23:57.02 | 4:39.70 | 107777 | 128771
8 | 28:36.72 | 4:39.17 | 128772 | 149713
9 | 33:16.14 | 4:46.09 | 149714 | 171172
10 | 38:02.23 | 4:56.36 | 171173 | 193408
11 | 42:58.59 | 5:27.30 | 193409 | 217963
12 | 48:26.14 | 7:57.18 | 217964 | 253756
13 | 56:23.32 | 4:41.16 | 253757 | 274847
14 | 61:04.48 | 4:32.63 | 274848 | 295310


Характеристики диапазона извлечения и сообщения об ошибках

Выбранный диапазон

Имя файла D:\BitComet\Joe Bonamassa - Different Shades Of Blue (BB Edition)(2014)(flac)\Joe Bonamassa - Different Shades Of Blue (BB Edition).wav

Пиковый уровень 100.0 %
Скорость извлечения 9.5 X
Качество диапазона 100.0 %
CRC теста F368B832
CRC копии F368B832
Копирование… OK

Ошибок не произошло


AccurateRip: сводка

Трек 1 отсутствует в базе данных
Трек 2 отсутствует в базе данных
Трек 3 отсутствует в базе данных
Трек 4 отсутствует в базе данных
Трек 5 отсутствует в базе данных
Трек 6 отсутствует в базе данных
Трек 7 отсутствует в базе данных
Трек 8 отсутствует в базе данных
Трек 9 отсутствует в базе данных
Трек 10 отсутствует в базе данных
Трек 11 отсутствует в базе данных
Трек 12 отсутствует в базе данных
Трек 13 отсутствует в базе данных
Трек 14 отсутствует в базе данных

Ни одного трека нет в базе AccurateRip

Конец отчёта

==== Контрольная сумма отчёта BBB9A90428037A814B1FD4F1139065E2F1005E9597AE763026D956EDE227937F ====

foobar2000 1.2.6 / Dynamic Range Meter 1.1.1
log date: 2016-03-28 17:12:43

––––––––––––––––––––––––––––––––––––––––
Analyzed: Joe Bonamassa / Different Shades Of Blue (BB Edition)
––––––––––––––––––––––––––––––––––––––––

DR Peak RMS Duration Track
––––––––––––––––––––––––––––––––––––––––
DR6 -0.08 dB -8.16 dB 1:20 01-Hey Baby (New Rising Sun)
DR7 -0.06 dB -9.19 dB 5:29 02-Oh Beautiful!
DR6 -0.05 dB -7.45 dB 3:49 03-Love Ain't A Love Song
DR7 -0.02 dB -8.68 dB 3:21 04-Living On The Moon
DR6 -0.04 dB -7.53 dB 4:34 05-Heartache Follows Wherever I Go
DR6 -0.06 dB -7.73 dB 5:24 06-Never Give All Your Heart
DR7 -0.03 dB -8.11 dB 4:40 07-I Gave Up Everything For You, 'Cept The Blues
DR6 -0.06 dB -7.99 dB 4:39 08-Different Shades Of Blue
DR6 -0.05 dB -7.70 dB 4:46 09-Get Back My Tomorrow
DR7 -0.01 dB -8.04 dB 4:56 10-Trouble Town
DR8 -0.06 dB -10.28 dB 5:27 11-So, What Would I Do
DR8 0.00 dB -9.39 dB 7:57 12-Scarlet Town
DR7 -0.04 dB -8.19 dB 4:41 13-Better The Devil You Know
DR7 -0.06 dB -8.04 dB 4:33 14-Black Irish Eyes
––––––––––––––––––––––––––––––––––––––––

Number of tracks: 14
Official DR value: DR7

Samplerate: 44100 Hz
Channels: 2
Bits per sample: 16
Bitrate: 1011 kbps
Codec: FLAC
================================================================================

[CUETools log; Date: 28.03.2016 17:12:37; Version: 2.1.5]
[CTDB TOCID: _WsonhAliyHpa8WsYGQOuDNDyX4-] disk not present in database.
[AccurateRip ID: 001ee064-0153de00-cc0f610e] found.
Track [ CRC | V2 ] Status
01 [cb3a862f|c52652e3] (0+1/1) Accurately ripped
02 [fadedec8|137cad45] (0+1/1) Accurately ripped
03 [08ea5033|c7499e3c] (0+1/1) Accurately ripped
04 [b46c02ef|406c765d] (0+1/1) Accurately ripped
05 [ee5d1966|fc7f59e1] (0+1/1) Accurately ripped
06 [5153c497|7a85850a] (0+1/1) Accurately ripped
07 [73ee0ec7|d9ec652d] (0+1/1) Accurately ripped
08 [088caa51|5071ae86] (0+1/1) Accurately ripped
09 [f75ca6c2|6c06bc1a] (0+1/1) Accurately ripped
10 [e2b12847|465853cf] (0+1/1) Accurately ripped
11 [2f5b527c|a58b35f2] (0+1/1) Accurately ripped
12 [b604052c|b78f176b] (0+1/1) Accurately ripped
13 [61bc8907|95a416ed] (0+1/1) Accurately ripped
14 [2891bb20|68e311f5] (0+1/1) Accurately ripped

Track Peak [ CRC32 ] [W/O NULL] [ LOG ]
– 100,0 [F368B832] [6D121E24] CRC32
01 99,1 [E2F3F9CD] [C8C5598A]
02 99,3 [1263697F] [9BB3EF95]
03 99,3 [B25179F3] [3395D326]
04 99,7 [9C0B2FEF] [261B51BD]
05 99,5 [839937F7] [902A98FE]
06 99,2 [7BAD96F8] [B842E256]
07 99,6 [12B6F7BF] [BD0B06E6]
08 99,3 [FBB0FA59] [4B400577]
09 99,4 [A3AF27F1] [465E70A4]
10 99,9 [C64E78E8] [FA84209E]
11 99,2 [CAF5AB5F] [0DECA03D]
12 100,0 [7F62AEE2] [DD00EE7D]
13 99,5 [C9B78293] [06CBA167]
14 99,3 [2DF7113F] [B37608DC]

Joe Bonamassa - Different Shades Of Blue (2014) {Best Buy Exclusive Edition}

All thanks go to izia1956
Visit my blog!

Download:
Nitroflare: FLAC | Scans | mp3
Salefiles: FLAC | Scans | mp3