Subcategories

Joe Dassin - Ses plus grands succes (2000) 2CDs

Posted By: Designol
Joe Dassin - Ses plus grands succes (2000) 2CDs

Joe Dassin - Ses plus grands succès (2000) 2CDs
EAC | FLAC | Image (Cue&Log) ~ 926 Mb | Mp3 (CBR320) ~ 355 Mb | Scans included
French Pop, Chanson, Pop Rock | Label: Versailles | # VER 4979642 | Time: 02:22:45

Joe was an easy listening pop singer who died in the early eighties while still in his prime. This collection contains the best of his music from 1965 to 1979. Some of the songs are of French origin and it would appear from the credits that he co-wrote some of them. He sings one of the tracks here (The guitar don't lie) in English, although the other 45 tracks are all in French. Apart from the French songs, there are a number of other songs that he sings with French lyrics. It is clear from the titles that at least some of them have completely new lyrics rather than being translated from the original. I conclude this review with a list of some of the songs that might be familiar to you, to give you an idea of his range of material. Despite his easy listening style, the sources of the songs are diverse, including country and folk as well as mainstream pop songs.

Review by Peter Durward Harris

Joe Dassin - Ses plus grands succes (2000) 2CDs



Tracklist:

CD1:

01. Les Champs-Elysees (02:39)
02. Le petit Pain au Chocolat (03:29)
03. Guantanamera (02:54)
04. Salut Les Amoureux (04:03)
05. L'equipe A Jojo (03:10)
06. Et Si Tu N'existais Pas (03:30)
07. La Fleur Aux Dents (02:11)
08. Les Dalton (02:39)
09. La Complainte De L'heure De Pointe (a velo dans Paris) (01:52)
10. Marie-Jeanne (04:16)
11. Le Chemin De Papa (02:29)
12. L'Amerique (02:26)
13. Siffler Sur La Colline (02:37)
14. La Demoiselle De Deshonneur (02:47)
15. Le Moustique (02:19)
16. Il Etait Une Fois Nous Deux (03:57)
17. Ma Bonne Etoile (02:38)
18. Le Grand Parking (02:15)
19. Les Plus Belles Annees De Ma Vie (04:38)
20. Comme La Lune (03:38)
21. Un Lord Anglais (02:55)
22. Vade Retro (03:02)
23. Billy Le Bordelais (04:07)

CD2:

01. L'ete Indien (04:31)
02. A Toi (02:51)
03. Cecilia (04:00)
04. La Bande A Bonnot (02:52)
05. Dans Les Yeux D'Emilie (03:45)
06. Il Faut Naitre A Monaco (01:52)
07. C'est La Vie Lily (03:00)
08. Ca Va Pas Changer Le Monde (03:04)
09. Tellement Bu, Tellement Fume (02:56)
10. Un Cadeau De Papa (02:20)
11. Le Temps Des Oeufs Au Plat (02:53)
12. Ca M'avance A Quoi (02:36)
13. The Guitar Don't Lie (04:17)
14. Si Tu T'appelles Melancolie (03:17)
15. Taka Takata (02:37)
16. Excuse Me, Lady (02:29)
17. Mon Village Du Bout Du Monde (03:21)
18. Je Change Un Peu De Vent (02:20)
19. Le Cafe Des 3 Colombes (03:59)
20. Me Que Me Que (02:37)
21. Le Dernier Slow (03:33)
22. Salut (03:19)
23. Taka Takata - Remix Latino 2000 (03:26)


Exact Audio Copy V1.0 beta 3 from 29. August 2011

Отчёт EAC об извлечении, выполненном 23. ноября 2015, 23:36

Joe Dassin / Ses Plus Grands Succes CD 1

Дисковод: Optiarc DVD RW AD-7280S Adapter: 1 ID: 0

Режим чтения : Достоверность
Использование точного потока : Да
Отключение кэша аудио : Да
Использование указателей C2 : Нет

Коррекция смещения при чтении : 48
Способность читать области Lead-in и Lead-out : Нет
Заполнение пропущенных сэмплов тишиной : Да
Удаление блоков с тишиной в начале и конце : Нет
При вычислениях CRC использовались нулевые сэмплы : Да
Интерфейс : Встроенный Win32-интерфейс для Win NT/2000

Выходной формат : Внутренние WAV-операции
Формат сэмплов : 44.100 Гц; 16 бит; стерео


TOC извлечённого CD

Трек | Старт | Длительность | Начальный сектор | Конечный сектор
––––––––––––––––––––––––––––––––––-
1 | 0:00.00 | 2:39.57 | 0 | 11981
2 | 2:39.57 | 3:29.63 | 11982 | 27719
3 | 6:09.45 | 2:54.47 | 27720 | 40816
4 | 9:04.17 | 4:03.55 | 40817 | 59096
5 | 13:07.72 | 3:10.40 | 59097 | 73386
6 | 16:18.37 | 3:30.08 | 73387 | 89144
7 | 19:48.45 | 2:11.09 | 89145 | 98978
8 | 21:59.54 | 2:39.11 | 98979 | 110914
9 | 24:38.65 | 1:52.27 | 110915 | 119341
10 | 26:31.17 | 4:16.00 | 119342 | 138541
11 | 30:47.17 | 2:29.50 | 138542 | 149766
12 | 33:16.67 | 2:26.05 | 149767 | 160721
13 | 35:42.72 | 2:37.70 | 160722 | 172566
14 | 38:20.67 | 2:47.60 | 172567 | 185151
15 | 41:08.52 | 2:19.50 | 185152 | 195626
16 | 43:28.27 | 3:57.38 | 195627 | 213439
17 | 47:25.65 | 2:38.20 | 213440 | 225309
18 | 50:04.10 | 2:15.24 | 225310 | 235458
19 | 52:19.34 | 4:38.11 | 235459 | 256319
20 | 56:57.45 | 3:38.47 | 256320 | 272716
21 | 60:36.17 | 2:55.50 | 272717 | 285891
22 | 63:31.67 | 3:02.25 | 285892 | 299566
23 | 66:34.17 | 4:07.45 | 299567 | 318136


Характеристики диапазона извлечения и сообщения об ошибках

Выбранный диапазон

Имя файла C:\Users\User\Desktop\111\Joe Dassin - Ses Plus Grands Succes CD 1.wav

Пиковый уровень 100.0 %
Скорость извлечения 1.0 X
Качество диапазона 100.0 %
CRC теста 80C00004
CRC копии 80C00004
Копирование… OK

Ошибок не произошло


AccurateRip: сводка

Трек 1 : извлечено точно (доверие 15) [115D4C0A] (AR v2)
Трек 2 : извлечено точно (доверие 16) [3EFC30F3] (AR v2)
Трек 3 : извлечено точно (доверие 16) [70F5AE6B] (AR v2)
Трек 4 : извлечено точно (доверие 15) [0FAD7989] (AR v2)
Трек 5 : извлечено точно (доверие 16) [8350182A] (AR v2)
Трек 6 : извлечено точно (доверие 16) [4CBE569C] (AR v2)
Трек 7 : извлечено точно (доверие 16) [19598194] (AR v2)
Трек 8 : извлечено точно (доверие 16) [2D3F22CE] (AR v2)
Трек 9 : извлечено точно (доверие 16) [4B09FAFE] (AR v2)
Трек 10 : извлечено точно (доверие 16) [92798D71] (AR v2)
Трек 11 : извлечено точно (доверие 15) [FB973D43] (AR v2)
Трек 12 : извлечено точно (доверие 16) [9DEF1FEF] (AR v2)
Трек 13 : извлечено точно (доверие 15) [CFF0F34D] (AR v2)
Трек 14 : извлечено точно (доверие 16) [421FE750] (AR v2)
Трек 15 : извлечено точно (доверие 16) [8887DD75] (AR v2)
Трек 16 : извлечено точно (доверие 15) [43AF6130] (AR v2)
Трек 17 : извлечено точно (доверие 15) [63037986] (AR v2)
Трек 18 : извлечено точно (доверие 16) [0173109C] (AR v2)
Трек 19 : извлечено точно (доверие 15) [02ABA105] (AR v2)
Трек 20 : извлечено точно (доверие 15) [898C32D6] (AR v2)
Трек 21 : извлечено точно (доверие 15) [DDE06B4B] (AR v2)
Трек 22 : извлечено точно (доверие 14) [8D79D177] (AR v2)
Трек 23 : извлечено точно (доверие 15) [7FA26D38] (AR v2)

Все треки извлечены точно

Конец отчёта

==== Контрольная сумма отчёта 9C8312C3668D2915ADD16F60AE6B96B7EAE78A0787E61BAEBA137EB2467CFB31 ====

foobar2000 1.3.8 / Dynamic Range Meter 1.1.1
log date: 2015-11-24 22:23:35

––––––––––––––––––––––––––––––––––––––––
Analyzed: Joe Dassin / Ses Plus Grands Succes CD 1
––––––––––––––––––––––––––––––––––––––––

DR Peak RMS Duration Track
––––––––––––––––––––––––––––––––––––––––
DR10 0.00 dB -12.49 dB 2:40 01-Les Champs-Elysees
DR8 0.00 dB -9.43 dB 3:30 02-Le petit Pain au Chocolat
DR10 -0.17 dB -12.20 dB 2:55 03-Guantanamera
DR8 0.00 dB -9.41 dB 4:04 04-Salut Les Amoureux
DR9 0.00 dB -9.92 dB 3:11 05-L'equipe A Jojo
DR10 0.00 dB -11.81 dB 3:30 06-Et Si Tu N'existais Pas
DR8 -0.17 dB -9.32 dB 2:11 07-La Fleur Aux Dents
DR10 0.00 dB -10.68 dB 2:39 08-Les Dalton
DR9 -0.17 dB -10.84 dB 1:52 09-La Complainte De L'heure De Pointe (a velo dans Paris)
DR11 -0.01 dB -12.24 dB 4:16 10-Marie-Jeanne
DR9 0.00 dB -11.39 dB 2:30 11-Le Chemin De Papa
DR8 -0.17 dB -9.32 dB 2:26 12-L'Amerique
DR8 -0.17 dB -9.12 dB 2:38 13-Siffler Sur La Colline
DR9 -0.17 dB -11.95 dB 2:48 14-La Demoiselle De Deshonneur
DR11 -0.17 dB -12.28 dB 2:20 15-Le Moustique
DR8 -1.18 dB -10.51 dB 3:58 16-Il Etait Une Fois Nous Deux
DR11 -0.17 dB -12.98 dB 2:38 17-Ma Bonne Etoile
DR10 0.00 dB -11.34 dB 2:15 18-Le Grand Parking
DR11 0.00 dB -13.57 dB 4:38 19-Les Plus Belles Annees De Ma Vie
DR10 -0.17 dB -12.47 dB 3:39 20-Comme La Lune
DR12 -0.17 dB -13.88 dB 2:56 21-Un Lord Anglais
DR12 0.00 dB -13.93 dB 3:02 22-Vade Retro
DR10 -0.77 dB -12.84 dB 4:08 23-Billy Le Bordelais
––––––––––––––––––––––––––––––––––––––––

Number of tracks: 23
Official DR value: DR10

Samplerate: 44100 Hz
Channels: 2
Bits per sample: 16
Bitrate: 868 kbps
Codec: FLAC
================================================================================


Exact Audio Copy V1.0 beta 3 from 29. August 2011

Отчёт EAC об извлечении, выполненном 24. ноября 2015, 7:50

Joe Dassin / Ses Plus Grands Succes CD 2

Дисковод: Optiarc DVD RW AD-7280S Adapter: 1 ID: 0

Режим чтения : Достоверность
Использование точного потока : Да
Отключение кэша аудио : Да
Использование указателей C2 : Нет

Коррекция смещения при чтении : 48
Способность читать области Lead-in и Lead-out : Нет
Заполнение пропущенных сэмплов тишиной : Да
Удаление блоков с тишиной в начале и конце : Нет
При вычислениях CRC использовались нулевые сэмплы : Да
Интерфейс : Встроенный Win32-интерфейс для Win NT/2000

Выходной формат : Внутренние WAV-операции
Формат сэмплов : 44.100 Гц; 16 бит; стерео


TOC извлечённого CD

Трек | Старт | Длительность | Начальный сектор | Конечный сектор
––––––––––––––––––––––––––––––––––-
1 | 0:00.00 | 4:31.30 | 0 | 20354
2 | 4:31.30 | 2:51.00 | 20355 | 33179
3 | 7:22.30 | 4:00.12 | 33180 | 51191
4 | 11:22.42 | 2:52.00 | 51192 | 64091
5 | 14:14.42 | 3:45.50 | 64092 | 81016
6 | 18:00.17 | 1:52.15 | 81017 | 89431
7 | 19:52.32 | 3:00.33 | 89432 | 102964
8 | 22:52.65 | 3:04.05 | 102965 | 116769
9 | 25:56.70 | 2:56.00 | 116770 | 129969
10 | 28:52.70 | 2:20.37 | 129970 | 140506
11 | 31:13.32 | 2:53.35 | 140507 | 153516
12 | 34:06.67 | 2:36.25 | 153517 | 165241
13 | 36:43.17 | 4:17.50 | 165242 | 184566
14 | 41:00.67 | 3:17.18 | 184567 | 199359
15 | 44:18.10 | 2:37.12 | 199360 | 211146
16 | 46:55.22 | 2:29.58 | 211147 | 222379
17 | 49:25.05 | 3:21.12 | 222380 | 237466
18 | 52:46.17 | 2:20.13 | 237467 | 247979
19 | 55:06.30 | 3:59.25 | 247980 | 265929
20 | 59:05.55 | 2:37.50 | 265930 | 277754
21 | 61:43.30 | 3:33.27 | 277755 | 293756
22 | 65:16.57 | 3:19.65 | 293757 | 308746
23 | 68:36.47 | 3:26.50 | 308747 | 324246


Характеристики диапазона извлечения и сообщения об ошибках

Выбранный диапазон

Имя файла C:\Users\User\Desktop\111\Joe Dassin - Ses Plus Grands Succes CD 2.wav

Пиковый уровень 100.0 %
Скорость извлечения 1.0 X
Качество диапазона 99.9 %
CRC теста EE643645
CRC копии EE643645
Копирование… OK

Ошибок не произошло


AccurateRip: сводка

Трек 1 : извлечено точно (доверие 16) [7DB3B661] (AR v2)
Трек 2 : извлечено точно (доверие 18) [C0F6779B] (AR v2)
Трек 3 : извлечено точно (доверие 17) [8E250020] (AR v2)
Трек 4 : извлечено точно (доверие 17) [FCE4B79D] (AR v2)
Трек 5 : извлечено точно (доверие 17) [293A46DF] (AR v2)
Трек 6 : извлечено точно (доверие 17) [55D80EC0] (AR v2)
Трек 7 : извлечено точно (доверие 17) [48762DF8] (AR v2)
Трек 8 : извлечено точно (доверие 18) [2E192E93] (AR v2)
Трек 9 : извлечено точно (доверие 17) [1B34AA40] (AR v2)
Трек 10 : извлечено точно (доверие 17) [D91C1126] (AR v2)
Трек 11 : извлечено точно (доверие 17) [EA35FF48] (AR v2)
Трек 12 : извлечено точно (доверие 17) [54C679AF] (AR v2)
Трек 13 : извлечено точно (доверие 17) [32E4379C] (AR v2)
Трек 14 : извлечено точно (доверие 17) [976C3BC2] (AR v2)
Трек 15 : извлечено точно (доверие 17) [157B21AE] (AR v2)
Трек 16 : извлечено точно (доверие 17) [3DC561EE] (AR v2)
Трек 17 : извлечено точно (доверие 17) [85807A0D] (AR v2)
Трек 18 : извлечено точно (доверие 17) [546AD391] (AR v2)
Трек 19 : извлечено точно (доверие 17) [B4A6B8D5] (AR v2)
Трек 20 : извлечено точно (доверие 17) [2F80B57B] (AR v2)
Трек 21 : извлечено точно (доверие 17) [2221E4D8] (AR v2)
Трек 22 : извлечено точно (доверие 17) [6C99EB8B] (AR v2)
Трек 23 : извлечено точно (доверие 17) [E5BC968F] (AR v2)

Все треки извлечены точно

Конец отчёта

==== Контрольная сумма отчёта 335CBB153A0F46C2CA640F6578D28178A510E61DAF01EB625C965178CC466FC4 ====

foobar2000 1.3.8 / Dynamic Range Meter 1.1.1
log date: 2015-11-24 22:30:33

––––––––––––––––––––––––––––––––––––––––
Analyzed: Joe Dassin / Ses Plus Grands Succes CD 2
––––––––––––––––––––––––––––––––––––––––

DR Peak RMS Duration Track
––––––––––––––––––––––––––––––––––––––––
DR9 -0.67 dB -12.45 dB 4:31 01-L'ete Indien
DR11 -0.17 dB -12.69 dB 2:51 02-A Toi
DR8 -0.17 dB -9.85 dB 4:00 03-Cecilia
DR9 -0.17 dB -10.69 dB 2:52 04-La Bande A Bonnot
DR7 -0.57 dB -9.54 dB 3:46 05-Dans Les Yeux D'Emilie
DR9 -0.67 dB -10.46 dB 1:52 06-Il Faut Naitre A Monaco
DR10 -0.17 dB -13.13 dB 3:00 07-C'est La Vie Lily
DR8 -0.17 dB -10.39 dB 3:04 08-Ca Va Pas Changer Le Monde
DR11 0.00 dB -11.81 dB 2:56 09-Tellement Bu, Tellement Fume
DR9 0.00 dB -10.39 dB 2:20 10-Un Cadeau De Papa
DR7 -1.17 dB -10.17 dB 2:53 11-Le Temps Des Oeufs Au Plat
DR8 -0.17 dB -10.57 dB 2:36 12-Ca M'avance A Quoi
DR11 -0.17 dB -13.46 dB 4:18 13-The Guitar Don't Lie
DR9 -0.17 dB -11.28 dB 3:17 14-Si Tu T'appelles Melancolie
DR9 -0.17 dB -10.55 dB 2:37 15-Taka Takata
DR9 -0.17 dB -10.38 dB 2:30 16-Excuse Me, Lady
DR11 -0.27 dB -14.40 dB 3:21 17-Mon Village Du Bout Du Monde
DR11 -0.28 dB -13.33 dB 2:20 18-Je Change Un Peu De Vent
DR10 -0.17 dB -13.21 dB 3:59 19-Le Cafe Des 3 Colombes
DR10 -0.17 dB -12.02 dB 2:38 20-Me Que Me Que
DR9 -0.17 dB -11.27 dB 3:33 21-Le Dernier Slow
DR9 -0.17 dB -11.75 dB 3:20 22-Salut
DR8 0.00 dB -9.95 dB 3:27 23-Taka Takata - Remix Latino 2000
––––––––––––––––––––––––––––––––––––––––

Number of tracks: 23
Official DR value: DR9

Samplerate: 44100 Hz
Channels: 2
Bits per sample: 16
Bitrate: 889 kbps
Codec: FLAC
================================================================================

Joe Dassin - Ses plus grands succes (2000) 2CDs

Joe Dassin - Ses plus grands succes (2000) 2CDs

All thanks to original releaser - mart64val

More interesting music in My Blog