Subcategories

Joe Lovano - Viva Caruso (2002)

Posted By: Designol
Joe Lovano - Viva Caruso (2002)

Joe Lovano - Viva Caruso (2002)
EAC | FLAC | Image (Cue&Log) ~ 378 Mb (incl 5%) | Mp3 (CBR320) ~ 177 Mb (incl 5%) | Scans included
Genre: Post-Bop, Modern Creative | Label: Blue Note | # 7243 5 35986 4 | Time: 01:05:11

Viva Caruso is easily one of tenor saxophonist Joe Lovano's most ambitious and enjoyable recordings. Much like Terence Blanchard's Jazz in Film or Uri Caine's Urlicht/Primal Light, Viva Caruso finds the reedman adapting orchestral melodies and harmonies to a jazz format. Inspired after reading a biography about Italian tenor and opera legend Enrico Caruso, Lovano spent most of 2000 through 2001 researching Caruso's music and developing this project. There is a progressive, third stream appeal to Viva Caruso, with the various instruments laying down intricate counter-melodies and liquid, pulsating rhythms. For example, "Vesto La Giubba" from Pagliacci is slowed down here into a kind of folk-jazz meditation, not unlike something Dave Douglas' Tiny Bell Trio might do. Likewise, "Campane a Sera" features a pretty flute introduction to a very mid-'50s, Stan Kenton-style arrangement, and Gerald Wilson could very easily have scored "Soltano a Te" with its characteristically West Coast, neo-phonic horn sounds. Not wanting to merely focus on the arias Caruso is famous for, Lovano reworks many of the songs the singer recorded that are compiled on the Nimbus CD Caruso in Song. Most of these sides were originally arranged with a small wind ensemble, a format which Lovano employs on the original composition "Streets of Naples," a street party-like tango featuring accordion accents. One of the real revelations on the album is how comfortably much of Caruso's popular oeuvre adjusts to jazz improvisation. "Santa Lucia," with its tropical-island carnival atmosphere, features Lovano in a tenor, bass, and drum format reminiscent of Saxophone Colossus-era Sonny Rollins. Similarly, the spirit of Joe Henderson permeates the airy and lithe "O Sole Mio."

Review by Matt Collar, Allmusic.com

Joe Lovano - Viva Caruso (2002)



Tracklist:

01. Vesti La Guibba 'I Pagliacci' (03:48)
02. Tarantella Sincera (04:42)
03. The Streets Of Naples (04:57)
04. Cielo Turchino (Deep Blue Sky) (04:42)
05. Pecche? (Why?) (07:39)
06. O Sole Mio (06:47)
07. Viva Caruso (04:18)
08. Campane A Sera (Evening Bells) (07:02)
09. Santa Lucia (04:25)
10. Soltanto A Tte (Only to you) (05:57)
11. Il Carnivale Di Pulcinella (06:42)
12. For You Alone (04:07)


Exact Audio Copy V1.0 beta 3 from 29. August 2011

Отчёт EAC об извлечении, выполненном 12. апреля 2015, 22:56

Joe Lovano / Viva Caruso

Дисковод: HL-DT-STDVDRAM GH22NS70 Adapter: 1 ID: 0

Режим чтения : Достоверность
Использование точного потока : Да
Отключение кэша аудио : Да
Использование указателей C2 : Нет

Коррекция смещения при чтении : 667
Способность читать области Lead-in и Lead-out : Нет
Заполнение пропущенных сэмплов тишиной : Да
Удаление блоков с тишиной в начале и конце : Нет
При вычислениях CRC использовались нулевые сэмплы : Да
Интерфейс : Встроенный Win32-интерфейс для Win NT/2000

Выходной формат : Пользовательский кодировщик
Выбранный битрейт : 128 kBit/s
Качество : Высокий
Добавление ID3-тега : Нет
Утилита сжатия : C:\Program Files\Exact Audio Copy\Flac\flac.exe
Дополнительные параметры : -V -8 -T "Date=%year%" -T "Genre=%genre%" %source%


TOC извлечённого CD

Трек | Старт | Длительность | Начальный сектор | Конечный сектор
––––––––––––––––––––––––––––––––––-
1 | 0:00.00 | 3:48.27 | 0 | 17126
2 | 3:48.27 | 4:42.20 | 17127 | 38296
3 | 8:30.47 | 4:57.53 | 38297 | 60624
4 | 13:28.25 | 4:42.57 | 60625 | 81831
5 | 18:11.07 | 7:39.13 | 81832 | 116269
6 | 25:50.20 | 6:47.65 | 116270 | 146859
7 | 32:38.10 | 4:18.15 | 146860 | 166224
8 | 36:56.25 | 7:02.45 | 166225 | 197919
9 | 43:58.70 | 4:25.55 | 197920 | 217849
10 | 48:24.50 | 5:57.20 | 217850 | 244644
11 | 54:21.70 | 6:42.35 | 244645 | 274829
12 | 61:04.30 | 4:07.05 | 274830 | 293359


Характеристики диапазона извлечения и сообщения об ошибках

Выбранный диапазон

Имя файла D:\Up-Down\_temp\Joe Lovano - Viva Caruso\Joe Lovano - Viva Caruso.wav

Пиковый уровень 99.8 %
Скорость извлечения 1.9 X
Качество диапазона 100.0 %
CRC теста 65A704AE
CRC копии 65A704AE
Копирование… OK

Ошибок не произошло


AccurateRip: сводка

Трек 1 : извлечено точно (доверие 4) [9E87E103] (AR v1)
Трек 2 : извлечено точно (доверие 3) [DABDD96C] (AR v1)
Трек 3 : извлечено точно (доверие 3) [F9D6C86D] (AR v1)
Трек 4 : извлечено точно (доверие 3) [9BEB3E6D] (AR v1)
Трек 5 : извлечено точно (доверие 3) [617E2980] (AR v1)
Трек 6 : извлечено точно (доверие 3) [1EE52BA7] (AR v1)
Трек 7 : извлечено точно (доверие 3) [86D49743] (AR v1)
Трек 8 : извлечено точно (доверие 3) [F335CC0E] (AR v1)
Трек 9 : извлечено точно (доверие 3) [5BF2F1A0] (AR v1)
Трек 10 : извлечено точно (доверие 3) [373A5577] (AR v1)
Трек 11 : извлечено точно (доверие 3) [3C48AD9E] (AR v1)
Трек 12 : извлечено точно (доверие 2) [C318ACE2] (AR v1)

Все треки извлечены точно

Конец отчёта

==== Контрольная сумма отчёта 8B093AF13C29B8DA45AEBDB16A95F29A60637589C6F07055052740ED3DE9C44F ====

foobar2000 1.2 / Dynamic Range Meter 1.1.1
log date: 2015-04-17 14:44:56

––––––––––––––––––––––––––––––––––––––––
Analyzed: Joe Lovano / Viva Caruso
––––––––––––––––––––––––––––––––––––––––

DR Peak RMS Duration Track
––––––––––––––––––––––––––––––––––––––––
DR13 -0.46 dB -18.45 dB 3:48 01-Vesti La Guibba 'I Pagliacci'
DR14 -0.01 dB -17.94 dB 4:42 02-Tarantella Sincera
DR13 -0.01 dB -15.66 dB 4:58 03-The Streets Of Naples
DR15 -0.01 dB -18.65 dB 4:43 04-Cielo Turchino (Deep Blue Sky)
DR13 -0.01 dB -17.24 dB 7:39 05-Pecche? (Why?)
DR14 -0.16 dB -17.35 dB 6:48 06-O Sole Mio
DR13 -0.01 dB -14.91 dB 4:18 07-Viva Caruso
DR15 -0.01 dB -19.17 dB 7:03 08-Campane A Sera (Evening Bells)
DR12 -0.01 dB -13.87 dB 4:26 09-Santa Lucia
DR13 -0.01 dB -15.95 dB 5:57 10-Soltanto A Tte (Only to you)
DR13 -0.01 dB -17.47 dB 6:42 11-Il Carnivale Di Pulcinella
DR14 -0.01 dB -18.44 dB 4:07 12-For You Alone
––––––––––––––––––––––––––––––––––––––––

Number of tracks: 12
Official DR value: DR14

Samplerate: 44100 Hz
Channels: 2
Bits per sample: 16
Bitrate: 731 kbps
Codec: FLAC
================================================================================

Joe Lovano - Viva Caruso (2002)

Joe Lovano - Viva Caruso (2002)

All thanks to original releaser - strizh64

More interesting music in My Blog