Subcategories

Joey Feek - If Not for You (2017)

Posted By: SERTiL
Joey Feek - If Not for You (2017)

Joey Feek - If Not for You
EAC Rip | FLAC (tracks)+cue, log, m3u, front cover | 43:19 min | 282 MB
Label: Farmhouse Recordings - SHD9334 | Tracks: 12 | Rls.date: 2017
Country

2017 release. Joey Feek's major label debut took 15 years, but it's finally going to see the light of day. In January of 2016 when Joey Feek was battling with the cervical cancer that would eventually take her life, Saving Country Music told the story of Joey Feek's major label debut album on Sony that was never released. Originally called Strong Enough to Cry, it was recorded in 2002 with producer Paul Worley (known for working with The Dixie Chicks and Martina McBride), and songwriter and performer Billy Crain. Right as Joey's album was getting ready to be released, Sony went through a regime change, and along with the label reshuffling, Strong Enough to Cry was completely shelved. - But all that is about to change. Gaither Music Group release that lost album, now called If Not For You. Features photos, memories and stories penned by Joey, her family, and husband Rory. The album includes the original rendition of the song "That's Important to Me," and cameo appearances from Joey's parents and a tribute to her late brother.

TRACKLIST
01. Intro (Have I Told You Lately That I Love You)
02. Strong Enough To Cry
03. That's Important To Me
04. When The Needle Hit The Vinyl
05. Nothing To Remember
06. The Cowboy's Mine
07. If Not For You
08. Southern Girl
09. Red
10. Like A Rodeo
11. See You There
12. Old Paint

Exact Audio Copy V1.3 from 2. September 2016

EAC extraction logfile from 13. May 2017, 16:21

Joey Feek / If Not For You

Used drive : ASUS DRW-24B1ST j Adapter: 1 ID: 0

Read mode : Secure
Utilize accurate stream : Yes
Defeat audio cache : Yes
Make use of C2 pointers : No

Read offset correction : 6
Overread into Lead-In and Lead-Out : No
Fill up missing offset samples with silence : Yes
Delete leading and trailing silent blocks : No
Null samples used in CRC calculations : Yes
Used interface : Native Win32 interface for Win NT & 2000
Gap handling : Appended to previous track

Used output format : User Defined Encoder
Selected bitrate : 1024 kBit/s
Quality : High
Add ID3 tag : No
Command line compressor : C:\Program Files (x86)\Exact Audio Copy\Flac\flac.exe
Additional command line options : -8 -e -p -V -T "ARTIST=%artist%" -T "TITLE=%title%" -T "ALBUM=%albumtitle%" -T "DATE=%year%" -T "TRACKNUMBER=%tracknr%" -T "GENRE=%genre%" -T "PERFORMER=%albuminterpret%" -T "COMPOSER=%composer%" %haslyrics%–tag-from-file=LYRICS="%lyricsfile%"%haslyrics% -T "ALBUMARTIST=%albumartist%" -T "DISCNUMBER=%cdnumber%" -T "TOTALDISCS=%totalcds%" -T "TOTALTRACKS=%numtracks%" -T "COMMENT=%comment%" %source% -o %dest%


TOC of the extracted CD

Track | Start | Length | Start sector | End sector
––––––––––––––––––––––––––––-
1 | 0:00.00 | 0:33.26 | 0 | 2500
2 | 0:33.26 | 4:08.53 | 2501 | 21153
3 | 4:42.04 | 3:08.51 | 21154 | 35304
4 | 7:50.55 | 3:41.74 | 35305 | 51953
5 | 11:32.54 | 3:41.30 | 51954 | 68558
6 | 15:14.09 | 3:50.13 | 68559 | 85821
7 | 19:04.22 | 2:32.37 | 85822 | 97258
8 | 21:36.59 | 3:30.12 | 97259 | 113020
9 | 25:06.71 | 4:15.07 | 113021 | 132152
10 | 29:22.03 | 3:25.63 | 132153 | 147590
11 | 32:47.66 | 3:52.34 | 147591 | 165024
12 | 36:40.25 | 6:44.18 | 165025 | 195342


Track 1

Filename C:\Users\Tom\Desktop\Pass the Headphones\EAC Rips\Joey Feek - If Not for You (2017) [FLAC] {SHD9334}\01 - Intro.wav

Pre-gap length 0:00:02.00

Peak level 22.9 %
Extraction speed 3.1 X
Track quality 100.0 %
Test CRC A357FF86
Copy CRC A357FF86
Track not present in AccurateRip database
Copy OK

Track 2

Filename C:\Users\Tom\Desktop\Pass the Headphones\EAC Rips\Joey Feek - If Not for You (2017) [FLAC] {SHD9334}\02 - Strong Enough To Cry.wav

Peak level 99.4 %
Extraction speed 5.9 X
Track quality 100.0 %
Test CRC E3138FF5
Copy CRC E3138FF5
Track not present in AccurateRip database
Copy OK

Track 3

Filename C:\Users\Tom\Desktop\Pass the Headphones\EAC Rips\Joey Feek - If Not for You (2017) [FLAC] {SHD9334}\03 - That's Important To Me.wav

Peak level 99.4 %
Extraction speed 6.2 X
Track quality 100.0 %
Test CRC 6F5624DD
Copy CRC 6F5624DD
Track not present in AccurateRip database
Copy OK

Track 4

Filename C:\Users\Tom\Desktop\Pass the Headphones\EAC Rips\Joey Feek - If Not for You (2017) [FLAC] {SHD9334}\04 - When The Needle Hit The Vinyl.wav

Peak level 99.4 %
Extraction speed 6.7 X
Track quality 100.0 %
Test CRC E05CCE85
Copy CRC E05CCE85
Track not present in AccurateRip database
Copy OK

Track 5

Filename C:\Users\Tom\Desktop\Pass the Headphones\EAC Rips\Joey Feek - If Not for You (2017) [FLAC] {SHD9334}\05 - Nothing To Remember.wav

Peak level 99.4 %
Extraction speed 5.9 X
Track quality 99.9 %
Test CRC 9EB2F217
Copy CRC 9EB2F217
Track not present in AccurateRip database
Copy OK

Track 6

Filename C:\Users\Tom\Desktop\Pass the Headphones\EAC Rips\Joey Feek - If Not for You (2017) [FLAC] {SHD9334}\06 - The Cowboy's Mine.wav

Peak level 99.4 %
Extraction speed 7.6 X
Track quality 100.0 %
Test CRC D340B292
Copy CRC D340B292
Track not present in AccurateRip database
Copy OK

Track 7

Filename C:\Users\Tom\Desktop\Pass the Headphones\EAC Rips\Joey Feek - If Not for You (2017) [FLAC] {SHD9334}\07 - If Not For You.wav

Peak level 99.4 %
Extraction speed 7.4 X
Track quality 100.0 %
Test CRC 1BC67E74
Copy CRC 1BC67E74
Track not present in AccurateRip database
Copy OK

Track 8

Filename C:\Users\Tom\Desktop\Pass the Headphones\EAC Rips\Joey Feek - If Not for You (2017) [FLAC] {SHD9334}\08 - Southern Girl.wav

Peak level 99.4 %
Extraction speed 6.6 X
Track quality 99.9 %
Test CRC 7D39CEEE
Copy CRC 7D39CEEE
Track not present in AccurateRip database
Copy OK

Track 9

Filename C:\Users\Tom\Desktop\Pass the Headphones\EAC Rips\Joey Feek - If Not for You (2017) [FLAC] {SHD9334}\09 - Red.wav

Peak level 99.4 %
Extraction speed 8.7 X
Track quality 100.0 %
Test CRC 628F2285
Copy CRC 628F2285
Track not present in AccurateRip database
Copy OK

Track 10

Filename C:\Users\Tom\Desktop\Pass the Headphones\EAC Rips\Joey Feek - If Not for You (2017) [FLAC] {SHD9334}\10 - Like A Rodeo.wav

Peak level 99.4 %
Extraction speed 7.0 X
Track quality 99.9 %
Test CRC D0BDC10C
Copy CRC D0BDC10C
Track not present in AccurateRip database
Copy OK

Track 11

Filename C:\Users\Tom\Desktop\Pass the Headphones\EAC Rips\Joey Feek - If Not for You (2017) [FLAC] {SHD9334}\11 - See You There.wav

Peak level 99.4 %
Extraction speed 9.2 X
Track quality 100.0 %
Test CRC 4F424CB7
Copy CRC 4F424CB7
Track not present in AccurateRip database
Copy OK

Track 12

Filename C:\Users\Tom\Desktop\Pass the Headphones\EAC Rips\Joey Feek - If Not for You (2017) [FLAC] {SHD9334}\12 - Old Paint.wav

Peak level 99.2 %
Extraction speed 10.2 X
Track quality 100.0 %
Test CRC 38957A9C
Copy CRC 38957A9C
Track not present in AccurateRip database
Copy OK


None of the tracks are present in the AccurateRip database

No errors occurred

End of status report

–– CUETools DB Plugin V2.1.6

[CTDB TOCID: eqCIiUSyKRz1d7AYrmmZ3BRu4kQ-] found
Submit result: eqCIiUSyKRz1d7AYrmmZ3BRu4kQ- has been confirmed
Track | CTDB Status
1 | (5/5) Accurately ripped
2 | (5/5) Accurately ripped
3 | (5/5) Accurately ripped
4 | (5/5) Accurately ripped
5 | (5/5) Accurately ripped
6 | (5/5) Accurately ripped
7 | (5/5) Accurately ripped
8 | (5/5) Accurately ripped
9 | (5/5) Accurately ripped
10 | (5/5) Accurately ripped
11 | (5/5) Accurately ripped
12 | (5/5) Accurately ripped


==== Log checksum CED194B97EB1F3DD6C394B614A1946BCDDD82CAF755C17CEECEA9AEC4BDA67D7 ====


Thanks to the Original customer.