Subcategories

Johann Sebastian Bach - The Orchestral Suites (2013) {Accent}

Posted By: tiburon
Johann Sebastian Bach - The Orchestral Suites (2013) {Accent}

Johann Sebastian Bach - The Orchestral Suites (2013) {Accent}
EAC 1.0b3 | FLAC tracks level 8 | Cue+Log+M3U | Full Scans 300dpi | 454MB + 5% Recovery
Genre: Classical, Baroque
Johann Sebastian Bach - The Orchestral Suites (2013) {Accent}

La Petite Bande has recorded a spectacular rendition of Bach’s four orchestral suites, certainly some of the most spectacular instrumental music of the Baroque repertoire. La Petite Bande director, Sigiswald Kuijken, has written a very informative essay explaining the history of these pieces. Unfortunately, more is unknown than known. Kuijken speculates that the works were conceived for string orchestra and the wind parts were added at a later date. He also notes that sections of the 4th Suite were reused in the opening chorus of the Christmas Cantata, BWV 110. Kuijken also remarks that he has rethought his approach to these works opting for small musical forces as opposed to the rather large ensemble that La Petite Bande employed in its performances and recording of about 30 years ago. He is to be commended for that note of honesty and courage to reexamine his previous musical approach. Kuijken also takes special note of the trumpet section, praising them for their use of playing ventless instruments and employing authentic performance practice techniques.
Track List
01. Overture (Suite) No. 1 in C Major, BWV 1066; I. Overture (5:38)
02. Overture (Suite) No. 1 in C Major, BWV 1066; II. Courante (2:28)
03. Overture (Suite) No. 1 in C Major, BWV 1066; III. Gavotte I-II (3:43)
04. Overture (Suite) No. 1 in C Major, BWV 1066; IV. Forlane (1:15)
05. Overture (Suite) No. 1 in C Major, BWV 1066; V. Menuet I-II (3:14)
06. Overture (Suite) No. 1 in C Major, BWV 1066; VI. Bourree I-II (2:26)
07. Overture (Suite) No. 1 in C Major, BWV 1066; VII. Passepied I-II (3:18)
08. Overture (Suite) No. 3 in D Major, BWV 1068; I. Ouverture (6:00)
09. Overture (Suite) No. 3 in D Major, BWV 1068; II. Air, ''Air on a G String'' (4:20)
10. Overture (Suite) No. 3 in D Major, BWV 1068; III. Gavotte I-II (4:24)
11. Overture (Suite) No. 3 in D Major, BWV 1068; IV. Bourree - (1:08)
12. Overture (Suite) No. 3 in D Major, BWV 1068; V. Gigue (3:05)
13. Overture (Suite) No. 2 in B Minor, BWV 1067; I. Ouverture (5:59)
14. Overture (Suite) No. 2 in B Minor, BWV 1067; II. Rondeau (1:46)
15. Overture (Suite) No. 2 in B Minor, BWV 1067; III. Sarabande (3:00)
16. Overture (Suite) No. 2 in B Minor, BWV 1067; IV. Bourree I-II (2:09)
17. Overture (Suite) No. 2 in B Minor, BWV 1067; V. Polonaise - Double (3:43)
18. Overture (Suite) No. 2 in B Minor, BWV 1067; VI. Menuet (1:10)
19. Overture (Suite) No. 2 in B Minor, BWV 1067; VII. Badinerie (1:42)
20. Overture (Suite) No. 4 in D Major, BWV 1069; I. Overture (7:01)
21. Overture (Suite) No. 4 in D Major, BWV 1069; II. Bourree I-II (2:44)
22. Overture (Suite) No. 4 in D Major, BWV 1069; III. Gavotte (1:55)
23. Overture (Suite) No. 4 in D Major, BWV 1069; IV. Menuet I-II (3:59)
24. Overture (Suite) No. 4 in D Major, BWV 1069; V. Rejouissance (2:57)

musicians
La Petite Bande:

Sigiswald Kuijken, Sara Kuijken, Barbara Konrad, Ann Cnop - violins
Marleen Thiers - viola
Marian Minnen, Ronan Kermoa - bass violins
Barthold Juijken - flute
Vinciane Baudhuin, Emiliano Rodolfi, Mathieu Loux - oboes
Rainer Johannsen - bassoon
Jean-Francois Madeuf, Jerome Prince, Graham Nicholson - trumpets
Koen Plaetinck - timpani,
Benjamin Alard - harpsichord
Sigiswald Kuijken - direction


Exact Audio Copy V1.0 beta 3 from 29. August 2011

EAC extraction logfile from 25. March 2014, 19:46

Johann Sebastian Bach / The Orchestral Suites

Used drive : PLEXTOR DVDR PX-860A Adapter: 0 ID: 0

Read mode : Secure
Utilize accurate stream : Yes
Defeat audio cache : Yes
Make use of C2 pointers : No

Read offset correction : 96
Overread into Lead-In and Lead-Out : No
Fill up missing offset samples with silence : Yes
Delete leading and trailing silent blocks : No
Null samples used in CRC calculations : Yes
Used interface : Native Win32 interface for Win NT & 2000
Gap handling : Appended to previous track

Used output format : User Defined Encoder
Selected bitrate : 1024 kBit/s
Quality : High
Add ID3 tag : No
Command line compressor : C:\Program Files\Exact Audio Copy\Flac\flac.exe
Additional command line options : -8 -V -T "ARTIST=%artist%" -T "TITLE=%title%" -T "ALBUM=%albumtitle%" -T "DATE=%year%" -T "TRACKNUMBER=%tracknr%" -T "TOTALTRACKS=%numtracks%" -T "GENRE=%genre%" -T "ALBUMARTIST=%albumartist%" -T "ALBUM ARTIST=%albumartist%" -T "DISCNUMBER=%cdnumber%" -T "TOTALDISCS=%totalcds%" -T "COMMENT=EAC Secure Mode, Test & Copy, AccurateRip, FLAC -8" %source%


TOC of the extracted CD

Track | Start | Length | Start sector | End sector
––––––––––––––––––––––––––––-
1 | 0:00.00 | 5:38.70 | 0 | 25419
2 | 5:38.70 | 2:28.57 | 25420 | 36576
3 | 8:07.52 | 3:43.09 | 36577 | 53310
4 | 11:50.61 | 1:15.74 | 53311 | 59009
5 | 13:06.60 | 3:14.21 | 59010 | 73580
6 | 16:21.06 | 2:26.10 | 73581 | 84540
7 | 18:47.16 | 3:18.38 | 84541 | 99428
8 | 22:05.54 | 6:00.69 | 99429 | 126497
9 | 28:06.48 | 4:20.01 | 126498 | 145998
10 | 32:26.49 | 4:24.48 | 145999 | 165846
11 | 36:51.22 | 1:08.23 | 165847 | 170969
12 | 37:59.45 | 3:05.20 | 170970 | 184864
13 | 41:04.65 | 5:59.67 | 184865 | 211856
14 | 47:04.57 | 1:46.08 | 211857 | 219814
15 | 48:50.65 | 3:00.10 | 219815 | 233324
16 | 51:51.00 | 2:09.70 | 233325 | 243069
17 | 54:00.70 | 3:43.21 | 243070 | 259815
18 | 57:44.16 | 1:10.42 | 259816 | 265107
19 | 58:54.58 | 1:42.15 | 265108 | 272772
20 | 60:36.73 | 7:01.38 | 272773 | 304385
21 | 67:38.36 | 2:44.28 | 304386 | 316713
22 | 70:22.64 | 1:55.13 | 316714 | 325351
23 | 72:18.02 | 3:59.52 | 325352 | 343328
24 | 76:17.54 | 2:57.62 | 343329 | 356665


Track 1

Filename O:\DL\Johann Sebastian Bach - The Orchestral Suites (2013) [FLAC]\01 - Orchestral Suite No. 1 in C Major - I. Ouverture.wav

Pre-gap length 0:00:02.00

Peak level 54.9 %
Extraction speed 4.7 X
Track quality 100.0 %
Test CRC F350713D
Copy CRC F350713D
Accurately ripped (confidence 3) [EA4009F1] (AR v2)
Copy OK

Track 2

Filename O:\DL\Johann Sebastian Bach - The Orchestral Suites (2013) [FLAC]\02 - II. Courante.wav

Peak level 63.1 %
Extraction speed 4.6 X
Track quality 100.0 %
Test CRC 0820F2A3
Copy CRC 0820F2A3
Accurately ripped (confidence 3) [7F3D0EB0] (AR v2)
Copy OK

Track 3

Filename O:\DL\Johann Sebastian Bach - The Orchestral Suites (2013) [FLAC]\03 - III. Gavotte.wav

Peak level 56.2 %
Extraction speed 4.6 X
Track quality 99.9 %
Test CRC 8CFC1937
Copy CRC 8CFC1937
Accurately ripped (confidence 3) [417AEDF0] (AR v2)
Copy OK

Track 4

Filename O:\DL\Johann Sebastian Bach - The Orchestral Suites (2013) [FLAC]\04 - IV. Forlane.wav

Peak level 42.7 %
Extraction speed 3.3 X
Track quality 99.8 %
Test CRC E34C66B4
Copy CRC E34C66B4
Accurately ripped (confidence 3) [8F9C3C3F] (AR v2)
Copy OK

Track 5

Filename O:\DL\Johann Sebastian Bach - The Orchestral Suites (2013) [FLAC]\05 - V. Menuet.wav

Peak level 46.7 %
Extraction speed 5.5 X
Track quality 100.0 %
Test CRC 8AE52158
Copy CRC 8AE52158
Accurately ripped (confidence 3) [0A469CF4] (AR v2)
Copy OK

Track 6

Filename O:\DL\Johann Sebastian Bach - The Orchestral Suites (2013) [FLAC]\06 - VI. Bourree.wav

Peak level 51.1 %
Extraction speed 5.4 X
Track quality 100.0 %
Test CRC BDD2CE5A
Copy CRC BDD2CE5A
Accurately ripped (confidence 3) [75350BA1] (AR v2)
Copy OK

Track 7

Filename O:\DL\Johann Sebastian Bach - The Orchestral Suites (2013) [FLAC]\07 - V. Passepied.wav

Peak level 55.0 %
Extraction speed 5.2 X
Track quality 99.9 %
Test CRC 9C3A2AE7
Copy CRC 9C3A2AE7
Accurately ripped (confidence 3) [6FBF62AA] (AR v2)
Copy OK

Track 8

Filename O:\DL\Johann Sebastian Bach - The Orchestral Suites (2013) [FLAC]\08 - Orchestral Suite No. 3 in D Major - I. Ouverture.wav

Peak level 89.4 %
Extraction speed 6.6 X
Track quality 100.0 %
Test CRC 9CA09DE6
Copy CRC 9CA09DE6
Accurately ripped (confidence 3) [86D64AC8] (AR v2)
Copy OK

Track 9

Filename O:\DL\Johann Sebastian Bach - The Orchestral Suites (2013) [FLAC]\09 - II. Air.wav

Peak level 23.6 %
Extraction speed 6.7 X
Track quality 100.0 %
Test CRC B145BBA4
Copy CRC B145BBA4
Accurately ripped (confidence 3) [9045BE73] (AR v2)
Copy OK

Track 10

Filename O:\DL\Johann Sebastian Bach - The Orchestral Suites (2013) [FLAC]\10 - III. Gavotte.wav

Peak level 82.4 %
Extraction speed 7.0 X
Track quality 100.0 %
Test CRC 46F0D95B
Copy CRC 46F0D95B
Accurately ripped (confidence 3) [5D469E31] (AR v2)
Copy OK

Track 11

Filename O:\DL\Johann Sebastian Bach - The Orchestral Suites (2013) [FLAC]\11 - IV. Bourree.wav

Peak level 72.6 %
Extraction speed 5.3 X
Track quality 100.0 %
Test CRC 98E16A93
Copy CRC 98E16A93
Accurately ripped (confidence 3) [395E5237] (AR v2)
Copy OK

Track 12

Filename O:\DL\Johann Sebastian Bach - The Orchestral Suites (2013) [FLAC]\12 - V. Gigue.wav

Peak level 83.6 %
Extraction speed 6.1 X
Track quality 99.9 %
Test CRC DB60EE4E
Copy CRC DB60EE4E
Accurately ripped (confidence 3) [B0DEFB99] (AR v2)
Copy OK

Track 13

Filename O:\DL\Johann Sebastian Bach - The Orchestral Suites (2013) [FLAC]\13 - Orchestral Suite No. 2 in B Minor - I. Ouverture.wav

Peak level 39.0 %
Extraction speed 7.1 X
Track quality 99.9 %
Test CRC 52250A84
Copy CRC 52250A84
Accurately ripped (confidence 3) [92A692F3] (AR v2)
Copy OK

Track 14

Filename O:\DL\Johann Sebastian Bach - The Orchestral Suites (2013) [FLAC]\14 - II. Rondeau.wav

Peak level 41.0 %
Extraction speed 6.6 X
Track quality 100.0 %
Test CRC 8878EF4C
Copy CRC 8878EF4C
Accurately ripped (confidence 3) [D9008B72] (AR v2)
Copy OK

Track 15

Filename O:\DL\Johann Sebastian Bach - The Orchestral Suites (2013) [FLAC]\15 - III. Sarabande.wav

Peak level 38.1 %
Extraction speed 7.5 X
Track quality 100.0 %
Test CRC 5A46B97F
Copy CRC 5A46B97F
Accurately ripped (confidence 3) [2D170162] (AR v2)
Copy OK

Track 16

Filename O:\DL\Johann Sebastian Bach - The Orchestral Suites (2013) [FLAC]\16 - IV. Bourree.wav

Peak level 43.0 %
Extraction speed 7.1 X
Track quality 100.0 %
Test CRC 13EE16B6
Copy CRC 13EE16B6
Accurately ripped (confidence 3) [899D29B9] (AR v2)
Copy OK

Track 17

Filename O:\DL\Johann Sebastian Bach - The Orchestral Suites (2013) [FLAC]\17 - V. Polonaise.wav

Peak level 39.9 %
Extraction speed 7.9 X
Track quality 100.0 %
Test CRC 48DCC51C
Copy CRC 48DCC51C
Accurately ripped (confidence 3) [2FBCF895] (AR v2)
Copy OK

Track 18

Filename O:\DL\Johann Sebastian Bach - The Orchestral Suites (2013) [FLAC]\18 - VI. Menuet.wav

Peak level 29.4 %
Extraction speed 6.1 X
Track quality 100.0 %
Test CRC E86A7274
Copy CRC E86A7274
Accurately ripped (confidence 3) [1EC126BB] (AR v2)
Copy OK

Track 19

Filename O:\DL\Johann Sebastian Bach - The Orchestral Suites (2013) [FLAC]\19 - VII. Badinerie.wav

Peak level 33.5 %
Extraction speed 6.8 X
Track quality 100.0 %
Test CRC 9EDE1546
Copy CRC 9EDE1546
Accurately ripped (confidence 3) [C5AD9B6B] (AR v2)
Copy OK

Track 20

Filename O:\DL\Johann Sebastian Bach - The Orchestral Suites (2013) [FLAC]\20 - Orchestral Suite No. 4 in D Major - I. Ouverture.wav

Peak level 98.0 %
Extraction speed 8.8 X
Track quality 100.0 %
Test CRC E9CAED75
Copy CRC E9CAED75
Accurately ripped (confidence 3) [B843E3E2] (AR v2)
Copy OK

Track 21

Filename O:\DL\Johann Sebastian Bach - The Orchestral Suites (2013) [FLAC]\21 - II. Bourree.wav

Peak level 89.7 %
Extraction speed 7.6 X
Track quality 100.0 %
Test CRC 72D3CD73
Copy CRC 72D3CD73
Accurately ripped (confidence 3) [B67055EB] (AR v2)
Copy OK

Track 22

Filename O:\DL\Johann Sebastian Bach - The Orchestral Suites (2013) [FLAC]\22 - III. Gavotte.wav

Peak level 82.6 %
Extraction speed 6.1 X
Track quality 99.9 %
Test CRC DF3A4D66
Copy CRC DF3A4D66
Accurately ripped (confidence 3) [3058E7B8] (AR v2)
Copy OK

Track 23

Filename O:\DL\Johann Sebastian Bach - The Orchestral Suites (2013) [FLAC]\23 - IV. Menuet.wav

Peak level 52.2 %
Extraction speed 7.8 X
Track quality 99.9 %
Test CRC 042364C0
Copy CRC 042364C0
Accurately ripped (confidence 3) [5DC1E4FA] (AR v2)
Copy OK

Track 24

Filename O:\DL\Johann Sebastian Bach - The Orchestral Suites (2013) [FLAC]\24 - V. Rejouissance.wav

Peak level 79.1 %
Extraction speed 8.3 X
Track quality 100.0 %
Test CRC 6B82B661
Copy CRC 6B82B661
Accurately ripped (confidence 3) [515BD3D1] (AR v2)
Copy OK


All tracks accurately ripped

No errors occurred

End of status report

–– CUETools DB Plugin V2.1.3

[CTDB TOCID: S.aqe5vZXAt3V.tRJLVyEDHyjKU-] found, Submit result: S.aqe5vZXAt3V.tRJLVyEDHyjKU- has been confirmed
[bb6defc8] (4/5) Accurately ripped
[b32e6a7c] (1/5) No match


==== Log checksum FB20BD8CD6115F095128A95DE5585B9A56C096E75F08BB29A259FBD15079A0FD ====


––––––––––––––––––––––––––––––––––––––––
Analyzed: Johann Sebastian Bach / The Orchestral Suites
––––––––––––––––––––––––––––––––––––––––

DR Peak RMS Duration Track
––––––––––––––––––––––––––––––––––––––––
DR12 -5.20 dB -20.23 dB 5:39 01-Orchestral Suite No. 1 in C Major - I. Ouverture
DR13 -4.00 dB -20.62 dB 2:29 02-II. Courante
DR14 -5.00 dB -22.02 dB 3:43 03-III. Gavotte
DR12 -7.38 dB -22.45 dB 1:16 04-IV. Forlane
DR13 -6.60 dB -23.52 dB 3:14 05-V. Menuet
DR14 -5.82 dB -22.09 dB 2:26 06-VI. Bourrée
DR12 -5.19 dB -22.13 dB 3:19 07-V. Passepied
DR14 -0.97 dB -18.18 dB 6:01 08-Orchestral Suite No. 3 in D Major - I. Ouverture
DR12 -12.51 dB -28.60 dB 4:20 09-II. Air
DR15 -1.67 dB -19.38 dB 4:25 10-III. Gavotte
DR13 -2.77 dB -18.28 dB 1:08 11-IV. Bourrée
DR13 -1.55 dB -18.16 dB 3:05 12-V. Gigue
DR13 -8.18 dB -24.13 dB 6:00 13-Orchestral Suite No. 2 in B Minor - I. Ouverture
DR11 -7.73 dB -25.21 dB 1:46 14-II. Rondeau
DR11 -8.36 dB -24.12 dB 3:00 15-III. Sarabande
DR13 -7.32 dB -25.10 dB 2:10 16-IV. Bourrée
DR12 -7.96 dB -23.76 dB 3:43 17-V. Polonaise
DR13 -10.62 dB -26.03 dB 1:11 18-VI. Menuet
DR13 -9.50 dB -25.53 dB 1:42 19-VII. Badinerie
DR14 -0.17 dB -17.76 dB 7:02 20-Orchestral Suite No. 4 in D Major - I. Ouverture
DR14 -0.94 dB -20.35 dB 2:44 21-II. Bourrée
DR12 -1.66 dB -17.04 dB 1:55 22-III. Gavotte
DR12 -5.64 dB -20.72 dB 4:00 23-IV. Menuet
DR13 -2.04 dB -18.31 dB 2:58 24-V. Réjouissance
––––––––––––––––––––––––––––––––––––––––

Number of tracks: 24
Official DR value: DR13

Samplerate: 44100 Hz
Channels: 2
Bits per sample: 16
Bitrate: 756 kbps
Codec: FLAC
================================================================================

Johann Sebastian Bach - The Orchestral Suites (2013) {Accent}
Johann Sebastian Bach - The Orchestral Suites (2013) {Accent}
Johann Sebastian Bach - The Orchestral Suites (2013) {Accent}


Rip by dtromp (W)