Subcategories

John Alldis Choir, New Philharmonia Orchestra, Giuseppe Patane - Bellini: I Capuleti e i Montecchi (2005)

Posted By: tirexiss
John Alldis Choir, New Philharmonia Orchestra, Giuseppe Patane - Bellini: I Capuleti e i Montecchi (2005)

John Alldis Choir, New Philharmonia Orchestra, Giuseppe Patane - Bellini: I Capuleti e i Montecchi (2005)
EAC | APE (image+.cue, log) | Covers Included | 02:14:48 | 658 MB
Genre: Classical, Opera | Label: EMI Classics | Catalog: 7243586055

Giuseppe Patanè was a leading conductor of the middle years of the 20th century, particularly well known for his work in opera.
His father was also a conductor, Franco Patanè (1908-1968), who introduced his son to music. Giuseppe studied piano and conducting at the Conservatorio San Pietro à Majella in Naples. While there, he was chosen at the age of 19 to conduct a performance of La Traviata at the Teatro Mercadante in Naples.
He began a typical apprenticeship for a European operatic conductor, serving as a repetiteur and assistant conductor (1951-1956) then moved to become principal conductor in a smaller provincial theater, the Linz Landestheater, in 1961. In the meantime, he began making guest conducting appearances in several European cities.
Successful fulfillment of a leadership role in a small part typically leads to engagement on the conducting staff of a major house in the standard conductors' career path, and in Patanè's case this was as a resident conductor at the Deutsche Oper in Berlin (1962-1968).
He made his conducting debut at La Scala in 1969 in Rigoletto and debuted at London's Royal Opera House, Covent Garden in 1973 in La forza del destino. He also conducted frequently at the Vienna State Opera, Copenhagen, and San Francisco. He made his Metropolitan Opera debut in 1978.
While best known for opera, he also was highly respected as an orchestral conductor and was co-principal conductor of the American Symphony Orchestra in New York from 1982 to 1984, chief conductor of the Mannheim National Theater (1984 - 1987), and chief conductor of the Munich Radio Orchestra in 1988. He died suddenly while conducting a performance of Il barbieri di Siviglia at the Bavarian State Opera.
He recorded several operas in the Italian repertory, particularly by Puccini, and several symphonic performances. His style was brilliant, energetic, with a tense, tight line reminiscent of Toscanini. He is particularly known for recordings in which he accompanied soprano Maria Callas. – Joseph Stevenson

John Alldis Choir, New Philharmonia Orchestra, Giuseppe Patane - Bellini: I Capuleti e i Montecchi (2005)

Track List:

CD 1:
01. Sinfonia
02. Aggiorna Appena…
03. O Di Capellio, Generosi Amici
04. E Serbata A Questo Acciaro
05. Si: M'abbraccia
06. L'amo Tanto, E M'e Si Cara
07. Vanne Lorenzo
08. Lieto Del Dolce Incarno
09. Ascolta. Se Romeo T'uccise Un Figlio
10. Riedi Al Campo
11. La Tremenda Ultrice Spada
12. Eccomi In Lieta Vesta…
13. Oh! Quante Volte
14. Propizia E L'ora
15. Si, Fuggire: A Noi Non Resta
16. Odi Tu? L'altar Funesto
17. Vieni, Ah! Vieni

Exact Audio Copy V0.99 prebeta 5 from 4. May 2009

EAC extraction logfile from 16. June 2009, 11:42

1-2 : J. Baker, B.Sills, N Gedda - G. Patane / New Philharmonia Orchestra / V. Bellini : I Capuleti e i Montecchi

Used drive : PLEXTOR DVDR PX-760A Adapter: 4 ID: 0

Read mode : Secure
Utilize accurate stream : Yes
Defeat audio cache : Yes
Make use of C2 pointers : No

Read offset correction : 30
Overread into Lead-In and Lead-Out : No
Fill up missing offset samples with silence : Yes
Delete leading and trailing silent blocks : No
Null samples used in CRC calculations : Yes
Used interface : Native Win32 interface for Win NT & 2000

Used output format : Monkey's Audio Lossless Encoder v3.99 DLL
Sample format : High Lossless Compression
Use compression offset : 30


TOC of the extracted CD

Track | Start | Length | Start sector | End sector
––––––––––––––––––––––––––––-
1 | 0:00.00 | 5:04.33 | 0 | 22832
2 | 5:04.33 | 4:26.55 | 22833 | 42837
3 | 9:31.13 | 2:48.26 | 42838 | 55463
4 | 12:19.39 | 2:13.04 | 55464 | 65442
5 | 14:32.43 | 1:13.29 | 65443 | 70946
6 | 15:45.72 | 4:40.73 | 70947 | 92019
7 | 20:26.70 | 2:07.06 | 92020 | 101550
8 | 22:34.01 | 2:11.19 | 101551 | 111394
9 | 24:45.20 | 2:21.74 | 111395 | 122043
10 | 27:07.19 | 0:45.69 | 122044 | 125487
11 | 27:53.13 | 3:32.65 | 125488 | 141452
12 | 31:26.03 | 6:17.63 | 141453 | 169790
13 | 37:43.66 | 4:01.74 | 169791 | 187939
14 | 41:45.65 | 2:57.21 | 187940 | 201235
15 | 44:43.11 | 10:35.64 | 201236 | 248924
16 | 55:19.00 | 1:03.06 | 248925 | 253655
17 | 56:22.06 | 4:20.33 | 253656 | 273188


Range status and errors

Selected range

Filename I:\UPS\VB.ICeiM.GP.NPO\VB.ICeiM.GP.NPO.01\1-2 J. Baker, B.Sills, N Gedda - G. Patane New Philharmonia Orchestra - V. Bellini I Capuleti e i Montecchi.ape

Peak level 97.0 %
Range quality 100.0 %
Copy CRC 93CC244F
Copy OK

No errors occurred


AccurateRip summary

Track 1 accurately ripped (confidence 1) [22304979]
Track 2 accurately ripped (confidence 1) [04380159]
Track 3 accurately ripped (confidence 1) [C0352AAC]
Track 4 accurately ripped (confidence 1) [1415A1C1]
Track 5 accurately ripped (confidence 1) [AE405145]
Track 6 accurately ripped (confidence 1) [E83C3773]
Track 7 accurately ripped (confidence 1) [57A0D784]
Track 8 accurately ripped (confidence 1) [6A2F547D]
Track 9 accurately ripped (confidence 1) [50302F62]
Track 10 accurately ripped (confidence 1) [30F90A8C]
Track 11 accurately ripped (confidence 1) [DF682A24]
Track 12 accurately ripped (confidence 1) [93960BC5]
Track 13 accurately ripped (confidence 1) [11C9CB33]
Track 14 accurately ripped (confidence 1) [E8B59224]
Track 15 accurately ripped (confidence 1) [183951F4]
Track 16 accurately ripped (confidence 1) [2678A714]
Track 17 accurately ripped (confidence 1) [5435A360]

All tracks accurately ripped

End of status report

[CUETools log; Date: 14.01.2018 10:19:57; Version: 2.1.5]
Truncated 4608 extra samples in some input files.
[CTDB TOCID: zUhp_Mpfky05ZIbgPhWPu0h7XBg-] found.
Track | CTDB Status
1 | (8/8) Accurately ripped
2 | (8/8) Accurately ripped
3 | (8/8) Accurately ripped
4 | (8/8) Accurately ripped
5 | (8/8) Accurately ripped
6 | (8/8) Accurately ripped
7 | (8/8) Accurately ripped
8 | (8/8) Accurately ripped
9 | (8/8) Accurately ripped
10 | (8/8) Accurately ripped
11 | (8/8) Accurately ripped
12 | (8/8) Accurately ripped
13 | (8/8) Accurately ripped
14 | (8/8) Accurately ripped
15 | (8/8) Accurately ripped
16 | (8/8) Accurately ripped
17 | (8/8) Accurately ripped
[AccurateRip ID: 0022e285-01ba2202-090e3a11] found.
Track [ CRC | V2 ] Status
01 [22304979|d77740cf] (08+11/19) Accurately ripped
02 [04380159|ae2231b6] (08+11/19) Accurately ripped
03 [c0352aac|587fcec3] (08+11/19) Accurately ripped
04 [1415a1c1|32b87aaa] (08+11/19) Accurately ripped
05 [ae405145|45291e62] (08+11/19) Accurately ripped
06 [e83c3773|34d46c84] (08+11/19) Accurately ripped
07 [57a0d784|c202da23] (08+11/19) Accurately ripped
08 [6a2f547d|071f9f63] (08+11/19) Accurately ripped
09 [50302f62|5922999e] (08+11/19) Accurately ripped
10 [30f90a8c|1bb0fd6b] (08+11/19) Accurately ripped
11 [df682a24|b10381ca] (08+11/19) Accurately ripped
12 [93960bc5|49c82bfa] (08+11/19) Accurately ripped
13 [11c9cb33|d6102623] (08+11/19) Accurately ripped
14 [e8b59224|af854fba] (08+11/19) Accurately ripped
15 [183951f4|9ac84a96] (08+11/19) Accurately ripped
16 [2678a714|4664b41e] (08+11/19) Accurately ripped
17 [5435a360|c0fcd470] (08+11/19) Accurately ripped

Track Peak [ CRC32 ] [W/O NULL] [ LOG ]
– 97,0 [93CC244F] [8658F342] CRC32
01 96,0 [9D0E08DC] [0FB25E3B]
02 92,8 [414ED4F3] [7E247D2E]
03 74,9 [0A6F0CB4] [E6C1F82E]
04 52,9 [3357AC41] [C0E880EE]
05 88,0 [007BB758] [51475E00]
06 97,0 [7EA5FBD0] [1ED74505]
07 77,7 [50806175] [10B33B78]
08 78,3 [29E9214E] [9E211D2D]
09 77,2 [4205F329] [94986B5B]
10 85,4 [48D8488D] [51B758B7]
11 90,2 [57477D3F] [3BD9A1E6]
12 72,3 [2009D5C3] [E059FE17]
13 71,6 [846B47DF] [21EBF632]
14 86,4 [18737737] [5C86E01D]
15 81,0 [402D3E7F] [55D4CB4A]
16 78,4 [F0794ECE] [9AD97EED]
17 85,4 [01647A25] [6BA90DEE]

CD 2:
01. Lieta Notte, Avventurosa
02. Deh! Per Pieta, T'arresta
03. Tace Il Fragor
04. Che Miro?
05. Soccorso, Sostegno Accordagli
06. Accorriam…Romeo!
07. Ne Alcun Ritorna!
08. Morte Io Non Temo Il Sai
09. Prendi, Gl'istanti Volano
10. Deh! Padre Mio, Deh Padre Mio!
11. Deserto E Il Luogo
12. Chi Sei Tu?
13. Qua' Voci! Oh Dio!
14. Ella E Morta, O Sciagurato
15. Siam Giunti
16. Ecco La Tomba
17. Tu Sola, O Mia Giulietta
18. O Tu, Mia Sola Speme
19. Ah! Crudel! Che Mai Facesti?

Exact Audio Copy V0.99 prebeta 5 from 4. May 2009

EAC extraction logfile from 16. June 2009, 12:24

2-2 : J.Baker, B. SIlls, N. Gedda - G. Patane / New Philharmonia Orchestra / V.Bellini : I Capuleti e i Montecchi

Used drive : PLEXTOR DVDR PX-760A Adapter: 4 ID: 0

Read mode : Secure
Utilize accurate stream : Yes
Defeat audio cache : Yes
Make use of C2 pointers : No

Read offset correction : 30
Overread into Lead-In and Lead-Out : No
Fill up missing offset samples with silence : Yes
Delete leading and trailing silent blocks : No
Null samples used in CRC calculations : Yes
Used interface : Native Win32 interface for Win NT & 2000

Used output format : Monkey's Audio Lossless Encoder v3.99 DLL
Sample format : High Lossless Compression
Use compression offset : 30


TOC of the extracted CD

Track | Start | Length | Start sector | End sector
––––––––––––––––––––––––––––-
1 | 0:00.00 | 3:00.47 | 0 | 13546
2 | 3:00.47 | 3:13.61 | 13547 | 28082
3 | 6:14.33 | 4:31.09 | 28083 | 48416
4 | 10:45.42 | 2:02.56 | 48417 | 57622
5 | 12:48.23 | 3:05.74 | 57623 | 71571
6 | 15:54.22 | 4:26.43 | 71572 | 91564
7 | 20:20.65 | 4:32.05 | 91565 | 111969
8 | 24:52.70 | 3:31.26 | 111970 | 127820
9 | 28:24.21 | 1:49.34 | 127821 | 136029
10 | 30:13.55 | 6:38.10 | 136030 | 165889
11 | 36:51.65 | 5:05.22 | 165890 | 188786
12 | 41:57.12 | 4:53.55 | 188787 | 210816
13 | 46:50.67 | 1:39.54 | 210817 | 218295
14 | 48:30.46 | 3:47.05 | 218296 | 235325
15 | 52:17.51 | 2:58.71 | 235326 | 248746
16 | 55:16.47 | 6:22.16 | 248747 | 277412
17 | 61:38.63 | 3:43.54 | 277413 | 294191
18 | 65:22.42 | 4:10.19 | 294192 | 312960
19 | 69:32.61 | 4:50.53 | 312961 | 334763


Range status and errors

Selected range

Filename I:\UPS\VB.ICeiM.GP.NPO\VB.ICeiM.GP.NPO.02\2-2 J.Baker, B. SIlls, N. Gedda - G. Patane New Philharmonia Orchestra - V.Bellini I Capuleti e i Montecchi.ape

Peak level 99.1 %
Range quality 100.0 %
Copy CRC 7BAD9116
Copy OK

No errors occurred


AccurateRip summary

Track 1 accurately ripped (confidence 1) [AEFBE972]
Track 2 accurately ripped (confidence 1) [078256B7]
Track 3 accurately ripped (confidence 1) [AD579D52]
Track 4 accurately ripped (confidence 1) [277988C0]
Track 5 accurately ripped (confidence 1) [75858AA5]
Track 6 accurately ripped (confidence 1) [D7A17DEB]
Track 7 accurately ripped (confidence 1) [BDD29E3B]
Track 8 accurately ripped (confidence 1) [FEFF2423]
Track 9 accurately ripped (confidence 1) [277B210C]
Track 10 accurately ripped (confidence 1) [DBC25E9F]
Track 11 accurately ripped (confidence 1) [10B57C72]
Track 12 accurately ripped (confidence 1) [61A754C0]
Track 13 accurately ripped (confidence 1) [01F97C87]
Track 14 accurately ripped (confidence 1) [621236D3]
Track 15 accurately ripped (confidence 1) [CD52A1B4]
Track 16 accurately ripped (confidence 1) [E8F951CC]
Track 17 accurately ripped (confidence 1) [E1D96A58]
Track 18 accurately ripped (confidence 1) [5A90C77F]
Track 19 accurately ripped (confidence 1) [D20AF1C0]

All tracks accurately ripped

End of status report

[CUETools log; Date: 14.01.2018 10:21:38; Version: 2.1.5]
Truncated 4608 extra samples in some input files.
[CTDB TOCID: WV61D5xnEhY9CtmNzpB3Q.FHH0Y-] found.
Track | CTDB Status
1 | (7/7) Accurately ripped
2 | (7/7) Accurately ripped
3 | (7/7) Accurately ripped
4 | (7/7) Accurately ripped
5 | (7/7) Accurately ripped
6 | (7/7) Accurately ripped
7 | (7/7) Accurately ripped
8 | (7/7) Accurately ripped
9 | (7/7) Accurately ripped
10 | (7/7) Accurately ripped
11 | (7/7) Accurately ripped
12 | (7/7) Accurately ripped
13 | (7/7) Accurately ripped
14 | (7/7) Accurately ripped
15 | (7/7) Accurately ripped
16 | (7/7) Accurately ripped
17 | (7/7) Accurately ripped
18 | (7/7) Accurately ripped
19 | (7/7) Accurately ripped
[AccurateRip ID: 00306dbd-02b0794c-06116f13] found.
Track [ CRC | V2 ] Status
01 [aefbe972|533ef915] (08+10/18) Accurately ripped
02 [078256b7|a22bf0cb] (08+10/18) Accurately ripped
03 [ad579d52|92a71d9d] (08+10/18) Accurately ripped
04 [277988c0|459e1229] (08+10/18) Accurately ripped
05 [75858aa5|ee137d18] (08+10/18) Accurately ripped
06 [d7a17deb|f2001d97] (08+10/18) Accurately ripped
07 [bdd29e3b|3c2c3523] (08+10/18) Accurately ripped
08 [feff2423|8a9ccd67] (08+10/18) Accurately ripped
09 [277b210c|27e30ba9] (08+10/18) Accurately ripped
10 [dbc25e9f|80d5f085] (08+10/18) Accurately ripped
11 [10b57c72|854adbe3] (08+10/18) Accurately ripped
12 [61a754c0|33de1cbc] (08+10/18) Accurately ripped
13 [01f97c87|162b35f7] (08+10/18) Accurately ripped
14 [621236d3|45c1d3d0] (08+10/18) Accurately ripped
15 [cd52a1b4|fd251fb3] (08+10/18) Accurately ripped
16 [e8f951cc|51732e6c] (08+10/18) Accurately ripped
17 [e1d96a58|e5c3cd9b] (08+10/18) Accurately ripped
18 [5a90c77f|eb04fae2] (08+10/18) Accurately ripped
19 [d20af1c0|de245e1b] (08+10/18) Accurately ripped

Track Peak [ CRC32 ] [W/O NULL] [ LOG ]
– 99,1 [7BAD9116] [18F85B07] CRC32
01 88,6 [1008E143] [2324A729]
02 97,3 [9FDC0FAC] [23912F51]
03 93,2 [BCC698F6] [34BC8187]
04 88,8 [CB614738] [7E90C764]
05 66,2 [83D11393] [F8C502A1]
06 99,1 [4C37909A] [D85B195D]
07 94,3 [632A8903] [EAC89633]
08 82,6 [379BA7AA] [3E0EB664]
09 88,7 [3B2893EC] [1D7A053F]
10 87,6 [EC4F1A27] [2EA6BEC4]
11 79,2 [03F0CF24] [575CE94C]
12 86,1 [4188562E] [BADEC4D4]
13 50,0 [F46E93B9] [653338A3]
14 88,2 [89E8E88E] [4556D033]
15 56,6 [F4ED3E7D] [C3DB3A00]
16 66,5 [66A6508B] [56522C7E]
17 65,8 [E48DFCF3] [D13F3E93]
18 97,2 [DE9BD35B] [8428C316]
19 98,1 [8FF8D40A] [DDFCE6BA]

Performers:
Janet Baker: Romeo
Beverly Sills: Giulietta
Robert Lloyd: Capellio
Nicolai Gedda: Tebaldo
Raimund Henricx: Lorenzo

John Alldis Choir
Choir Master: Joihn Alldis
New Philharmonia Orchestra
Giuseppe Patane: Conductor

Thanks to the Original ripper (unknown)!

Download: