Subcategories

John Coltrane - Blue Train (1957) [MFSL, UDCD 547] Repost

Posted By: v3122
John Coltrane - Blue Train (1957) [MFSL, UDCD 547] Repost

John Coltrane - Blue Train (1957)
EAC | Flac(Image) + Cue + Log & MP3 CBR 320Kbps
1991 | Mobile Fidelity Sound Lab, UDCD 547 | ~ 292 or 104 Mb | Scans(jpg) -> 33 Mb
Jazz, Post Bop

Although never formally signed, an oral agreement between John Coltrane and Blue Note Records founder Alfred Lion was indeed honored on Blue Train – Coltrane's only collection of sides as a principal artist for the venerable label. The disc is packed solid with sonic evidence of Coltrane's innate leadership abilities. He not only addresses the tunes at hand, but also simultaneously reinvents himself as a multifaceted interpreter of both hard bop as well as sensitive balladry – touching upon all forms in between. The personnel on Blue Train is arguably as impressive as what they're playing. Joining Coltrane (tenor sax) are Lee Morgan (trumpet), Curtis Fuller (trombone), Kenny Drew (piano), Paul Chambers (bass), and Philly Joe Jones (drums). The triple horn arrangements incorporate an additional sonic density that remains a trademark unique to both this band and album. Of particular note is Fuller's even-toned trombone, which bops throughout the title track as well as the frenetic "Moments Notice." Other solos include Paul Chambers' subtly understated riffs on "Blue Train" as well as the high energy and impact from contributions by Lee Morgan and Kenny Drew during "Locomotion." The track likewise features some brief but vital contributions from Philly Joe Jones – whose efforts throughout the record stand among his personal best. Of the five sides that comprise the original Blue Train, the Jerome Kern/Johnny Mercer ballad "I'm Old Fashioned" is the only standard; in terms of unadulterated sentiment, this version is arguably untouchable. Fuller's rich tones and Drew's tastefully executed solos cleanly wrap around Jones' steadily languid rhythms. Without reservation, Blue Train can easily be considered in and among the most important and influential entries not only of John Coltrane's career, but of the entire genre of jazz music as well.

by Lindsay Planer, allmusic
John Coltrane - Blue Train (1957):

John Coltrane - Blue Train (1957) [MFSL, UDCD 547] Repost

Tracklist:

01. Blue Train [10:44]
02. Moment's Notice [9:10]
03. Locomotion [7:14]
04. I'm Old Fashioned [7:57]
05. Lazy Bird [7:04]

Exact Audio Copy V0.99 prebeta 5 from 4. May 2009

EAC extraction logfile from 13. June 2012, 23:32

John Coltrane / Blue Train (MFSL UDCD 547)

Used drive : ASUS DRW-24B3ST Adapter: 0 ID: 0

Read mode : Secure
Utilize accurate stream : Yes
Defeat audio cache : Yes
Make use of C2 pointers : No

Read offset correction : 6
Overread into Lead-In and Lead-Out : No
Fill up missing offset samples with silence : Yes
Delete leading and trailing silent blocks : No
Null samples used in CRC calculations : Yes
Used interface : Native Win32 interface for Win NT & 2000

Used output format : User Defined Encoder
Selected bitrate : 1024 kBit/s
Quality : High
Add ID3 tag : No
Command line compressor : C:\Program Files (x86)\EAC\WV\wavpack.exe
Additional command line options : -h -hh -m %s %d


TOC of the extracted CD

Track | Start | Length | Start sector | End sector
––––––––––––––––––––––––––––-
1 | 0:00.00 | 10:44.05 | 0 | 48304
2 | 10:44.05 | 9:10.25 | 48305 | 89579
3 | 19:54.30 | 7:14.02 | 89580 | 122131
4 | 27:08.32 | 7:57.35 | 122132 | 157941
5 | 35:05.67 | 7:03.73 | 157942 | 189739


Range status and errors

Selected range

Filename G:\@ MFSL\John Coltrane © 1957- Blue Train (US 1991 MFSL • UDCD 547)\John Coltrane - Blue Train (MFSL UDCD 547).wav

Peak level 89.9 %
Range quality 100.0 %
Test CRC 2536FB3F
Copy CRC 2536FB3F
Copy OK

No errors occurred


AccurateRip summary

Track 1 accurately ripped (confidence 15) [B2306444]
Track 2 accurately ripped (confidence 16) [20990848]
Track 3 accurately ripped (confidence 16) [EE52E38E]
Track 4 accurately ripped (confidence 16) [FB3F451A]
Track 5 accurately ripped (confidence 15) [52B46B75]

All tracks accurately ripped

End of status report

foobar2000 1.2.9 / Dynamic Range Meter 1.1.1
log date: 2016-12-03 16:15:33

––––––––––––––––––––––––––––––––––––––––
Analyzed: John Coltrane / Blue Train (MFSL UDCD 547)
––––––––––––––––––––––––––––––––––––––––

DR Peak RMS Duration Track
––––––––––––––––––––––––––––––––––––––––
DR13 -0.92 dB -16.82 dB 10:44 01-Blue Train
DR13 -1.13 dB -16.76 dB 9:10 02-Moment's Notice
DR13 -1.50 dB -16.38 dB 7:14 03-Locomotion
DR13 -2.36 dB -18.58 dB 7:57 04-I'm Old Fashioned
DR12 -2.19 dB -17.33 dB 7:04 05-Lazy Bird
––––––––––––––––––––––––––––––––––––––––

Number of tracks: 5
Official DR value: DR13

Samplerate: 44100 Hz
Channels: 2
Bits per sample: 16
Bitrate: 939 kbps
Codec: FLAC

[CUETools log; Date: 03.12.2016 16:15:22; Version: 2.1.4]
[CTDB TOCID: zLaY8helc57qAKhctBSiKE6k9c0-] found.
Track | CTDB Status
1 | (23/23) Accurately ripped
2 | (22/23) Accurately ripped
3 | (23/23) Accurately ripped
4 | (22/23) Accurately ripped
5 | (22/23) Accurately ripped
[AccurateRip ID: 000945d3-002a734d-3709e105] found.
Track [ CRC | V2 ] Status
01 [b2306444|08cc551b] (15+18/35) Accurately ripped
02 [20990848|ea156562] (16+18/38) Accurately ripped
03 [ee52e38e|ff463400] (16+18/38) Accurately ripped
04 [fb3f451a|1741698d] (16+18/38) Accurately ripped
05 [52b46b75|a2b22c5f] (15+18/37) Accurately ripped
Offsetted by 30:
01 [fe2ff53a] (02/35) Accurately ripped
02 [9d7dede7] (02/38) Accurately ripped
03 [f6eeac35] (02/38) Accurately ripped
04 [c54ac3dc] (02/38) Accurately ripped
05 [3100cf8e] (02/37) Accurately ripped
Offsetted by -6:
01 [a2fd4746] (00/35) No match (V2 was not tested)
02 [07327461] (00/38) No match (V2 was not tested)
03 [ed062167] (00/38) No match (V2 was not tested)
04 [6cdc2bc0] (00/38) No match (V2 was not tested)
05 [d54ba2c8] (00/37) No match (V2 was not tested)
Offsetted by 6:
01 [c1638142] (00/35) No match
02 [39db9c53] (00/38) No match
03 [efc3a591] (00/38) No match
04 [89c65e74] (00/38) No match
05 [8c177282] (00/37) No match (V2 was not tested)

Track Peak [ CRC32 ] [W/O NULL] [ LOG ]
– 89,9 [2536FB3F] [19D1462C] CRC32
01 89,9 [C0D162ED] [4D9975F7]
02 87,7 [9864A9CF] [736F8A70]
03 84,1 [B2E38678] [59AB14BC]
04 76,1 [71A0244E] [4881E7B7]
05 77,7 [F8CC369B] [1A2BA492]

John Coltrane - Blue Train (1957) [MFSL, UDCD 547] Repost

All thanks go to the original releaser

Download John Coltrane - Blue Train (1957):