Subcategories

John Hammond - John Hammond Live (1983) Reissue 1991

Posted By: Designol
John Hammond - John Hammond Live (1983) Reissue 1991

John Hammond - John Hammond Live (1983) Reissue 1991
EAC | FLAC | Tracks (Cue&Log) ~ 450 Mb | Mp3 (CBR320) ~ 168 Mb | Scans included
Modern Acoustic Blues, Folk-Blues | Label: Rounder | # CD 3074 | Time: 01:12:21

John Hammond has dealt with issues of authenticity and origin, both musical and personal, and moved beyond them. This 18-song session, recorded live in 1983 and recently reissued on CD, may have been his definitive session. It was certainly a masterpiece, with Hammond doing confident, thoroughly distinctive versions of signature Delta and Chicago blues classics by Robert Johnson, Muddy Waters, Willie Dixon, Son House and others. While "Dust My Broom," "Drop Down Mama," "Wang Dang Doodle" and all the rest have certainly been done to death, Hammond's spirited vocals, riveting guitar work on acoustic or bottleneck and his overall charismatic performances made them seem like fresh discoveries.

Review by Ron Wynn, Allmusic.com

John Hammond - John Hammond Live (1983) Reissue 1991



Tracklist:

01. I Wish You Would (4:41)
02. Saddle My Pony (3:30)
03. Cat Man Blues (4:08)
04. Custard Pie (3:10)
05. One Kind Favor (4:00)
06. I Can't Be Satisfied (4:10)
07. Dust My Broom (4:30)
08. Low Down Dog (4:26)
09. Little School Girl (3:23)
10. Shake For Me (3:19)
11. Drop Down Mama (4:40)
12. Texas Tornado (4:02)
13. Steady Rollin' Man (4:37)
14. Ain't That Lovin' You Baby (3:20)
15. Sail On (4:21)
16. Wang Dang Doodle (3:37)
17. Honeymoon Blues (3:26)
18. I'm Movin' On (5:01)


Exact Audio Copy V1.3 from 2. September 2016

EAC extraction logfile from 13. September 2018, 7:05

John Hammond / Live

Used drive : HL-DT-STDVDRAM GH24NSD1 Adapter: 1 ID: 1

Read mode : Secure
Utilize accurate stream : Yes
Defeat audio cache : Yes
Make use of C2 pointers : No

Read offset correction : 6
Overread into Lead-In and Lead-Out : No
Fill up missing offset samples with silence : Yes
Delete leading and trailing silent blocks : No
Null samples used in CRC calculations : Yes
Used interface : Native Win32 interface for Win NT & 2000
Gap handling : Appended to previous track

Used output format : User Defined Encoder
Selected bitrate : 768 kBit/s
Quality : High
Add ID3 tag : No
Command line compressor : C:\Program Files (x86)\Exact Audio Copy\FLAC\FLAC.EXE
Additional command line options : -6 -V -T "ARTIST=%artist%" -T "TITLE=%title%" -T "ALBUM=%albumtitle%" -T "DATE=%year%" -T "TRACKNUMBER=%tracknr%" -T "GENRE=%genre%" -T "COMMENT=%comment%" -T "BAND=%albuminterpret%" -T "ALBUMARTIST=%albuminterpret%" -T "COMPOSER=%composer%" %haslyrics%–tag-from-file=LYRICS="%lyricsfile%"%haslyrics% -T "DISCNUMBER=%cdnumber%" -T "TOTALDISCS=%totalcds%" -T "TOTALTRACKS=%numtracks%" %hascover%–picture="%coverfile%"%hascover% %source% -o %dest%


TOC of the extracted CD

Track | Start | Length | Start sector | End sector
––––––––––––––––––––––––––––-
1 | 0:00.37 | 4:41.23 | 37 | 21134
2 | 4:41.60 | 3:29.57 | 21135 | 36866
3 | 8:11.42 | 4:07.50 | 36867 | 55441
4 | 12:19.17 | 3:10.00 | 55442 | 69691
5 | 15:29.17 | 3:59.73 | 69692 | 87689
6 | 19:29.15 | 4:09.50 | 87690 | 106414
7 | 23:38.65 | 4:30.00 | 106415 | 126664
8 | 28:08.65 | 4:25.47 | 126665 | 146586
9 | 32:34.37 | 3:23.15 | 146587 | 161826
10 | 35:57.52 | 3:18.55 | 161827 | 176731
11 | 39:16.32 | 4:40.25 | 176732 | 197756
12 | 43:56.57 | 4:02.35 | 197757 | 215941
13 | 47:59.17 | 4:37.13 | 215942 | 236729
14 | 52:36.30 | 3:19.70 | 236730 | 251724
15 | 55:56.25 | 4:20.42 | 251725 | 271266
16 | 60:16.67 | 3:37.18 | 271267 | 287559
17 | 63:54.10 | 3:26.20 | 287560 | 303029
18 | 67:20.30 | 5:01.20 | 303030 | 325624


Track 1

Filename D:\_MUSIC\_EAC\01 I Wish You Would.wav

Pre-gap length 0:00:02.37

Peak level 100.0 %
Extraction speed 1.2 X
Track quality 100.0 %
Test CRC A5140A49
Copy CRC A5140A49
Accurately ripped (confidence 6) [4FE00A39] (AR v2)
Copy OK

Track 2

Filename D:\_MUSIC\_EAC\02 Saddle My Pony.wav

Peak level 89.2 %
Extraction speed 1.3 X
Track quality 100.0 %
Test CRC 5628383E
Copy CRC 5628383E
Accurately ripped (confidence 6) [B17A7A3D] (AR v2)
Copy OK

Track 3

Filename D:\_MUSIC\_EAC\03 Cat Man Blues.wav

Peak level 87.6 %
Extraction speed 1.3 X
Track quality 99.9 %
Test CRC 667AF9D6
Copy CRC 667AF9D6
Accurately ripped (confidence 6) [C6B20D02] (AR v2)
Copy OK

Track 4

Filename D:\_MUSIC\_EAC\04 Custard Pie.wav

Peak level 90.1 %
Extraction speed 1.4 X
Track quality 100.0 %
Test CRC 84E54481
Copy CRC 84E54481
Accurately ripped (confidence 6) [1835155E] (AR v2)
Copy OK

Track 5

Filename D:\_MUSIC\_EAC\05 One Kind Favor.wav

Peak level 94.4 %
Extraction speed 1.6 X
Track quality 100.0 %
Test CRC B58498BD
Copy CRC B58498BD
Accurately ripped (confidence 6) [772EC6B6] (AR v2)
Copy OK

Track 6

Filename D:\_MUSIC\_EAC\06 I Can't Be Satisfied.wav

Peak level 99.4 %
Extraction speed 1.5 X
Track quality 99.9 %
Test CRC 10A991D2
Copy CRC 10A991D2
Accurately ripped (confidence 6) [4BD00330] (AR v2)
Copy OK

Track 7

Filename D:\_MUSIC\_EAC\07 Dust My Broom.wav

Peak level 97.7 %
Extraction speed 1.8 X
Track quality 100.0 %
Test CRC 39913305
Copy CRC 39913305
Accurately ripped (confidence 6) [C3F75B21] (AR v2)
Copy OK

Track 8

Filename D:\_MUSIC\_EAC\08 Low Down Dog.wav

Peak level 88.3 %
Extraction speed 1.9 X
Track quality 100.0 %
Test CRC 22E61A26
Copy CRC 22E61A26
Accurately ripped (confidence 6) [F0817FE8] (AR v2)
Copy OK

Track 9

Filename D:\_MUSIC\_EAC\09 Little School Girl.wav

Peak level 89.1 %
Extraction speed 1.6 X
Track quality 99.9 %
Test CRC C3EC0283
Copy CRC C3EC0283
Accurately ripped (confidence 6) [08AEFE95] (AR v2)
Copy OK

Track 10

Filename D:\_MUSIC\_EAC\10 Shake for Me.wav

Peak level 100.0 %
Extraction speed 1.9 X
Track quality 100.0 %
Test CRC 186A530B
Copy CRC 186A530B
Accurately ripped (confidence 6) [7B849CCB] (AR v2)
Copy OK

Track 11

Filename D:\_MUSIC\_EAC\11 Drop Down Mama.wav

Peak level 95.3 %
Extraction speed 2.1 X
Track quality 100.0 %
Test CRC E07C1112
Copy CRC E07C1112
Accurately ripped (confidence 6) [0D261BED] (AR v2)
Copy OK

Track 12

Filename D:\_MUSIC\_EAC\12 Texas Tornado.wav

Peak level 78.8 %
Extraction speed 2.1 X
Track quality 100.0 %
Test CRC 08427CF2
Copy CRC 08427CF2
Accurately ripped (confidence 6) [F77308C0] (AR v2)
Copy OK

Track 13

Filename D:\_MUSIC\_EAC\13 Steady Rollin' Man.wav

Peak level 82.2 %
Extraction speed 2.3 X
Track quality 100.0 %
Test CRC 810F758B
Copy CRC 810F758B
Accurately ripped (confidence 6) [04FA8A8D] (AR v2)
Copy OK

Track 14

Filename D:\_MUSIC\_EAC\14 Ain't That Lovin' You Baby.wav

Peak level 84.1 %
Extraction speed 2.2 X
Track quality 100.0 %
Test CRC 702615F1
Copy CRC 702615F1
Accurately ripped (confidence 6) [A225F583] (AR v2)
Copy OK

Track 15

Filename D:\_MUSIC\_EAC\15 Sail On.wav

Peak level 84.1 %
Extraction speed 2.3 X
Track quality 100.0 %
Test CRC 7622A74C
Copy CRC 7622A74C
Accurately ripped (confidence 6) [277A0275] (AR v2)
Copy OK

Track 16

Filename D:\_MUSIC\_EAC\16 Wang Dang Doodle.wav

Peak level 84.1 %
Extraction speed 2.4 X
Track quality 100.0 %
Test CRC 3262EA0D
Copy CRC 3262EA0D
Accurately ripped (confidence 5) [B488A651] (AR v2)
Copy OK

Track 17

Filename D:\_MUSIC\_EAC\17 Honeymoon Blues.wav

Peak level 84.1 %
Extraction speed 2.4 X
Track quality 100.0 %
Test CRC E24E5C71
Copy CRC E24E5C71
Accurately ripped (confidence 6) [FBB10B07] (AR v2)
Copy OK

Track 18

Filename D:\_MUSIC\_EAC\18 I'm Movin' On.wav

Peak level 91.3 %
Extraction speed 2.6 X
Track quality 100.0 %
Test CRC 2B4E6149
Copy CRC 2B4E6149
Accurately ripped (confidence 6) [F86E091E] (AR v2)
Copy OK


All tracks accurately ripped

No errors occurred

End of status report

==== Log checksum 8AB691DB77DB916F04EEDA5901B1F82F2D886B73BE293EB7E1AF0D2528A667A7 ====

[CUETools log; Date: 25.09.2018 3:45:36; Version: 2.1.4]
Pregap length 00:00:37.
[CTDB TOCID: 2.jFf.YEhnV_Gf55gDm5538Xoko-] found.
Track | CTDB Status
1 | (6/6) Accurately ripped
2 | (6/6) Accurately ripped
3 | (6/6) Accurately ripped
4 | (6/6) Accurately ripped
5 | (6/6) Accurately ripped
6 | (6/6) Accurately ripped
7 | (6/6) Accurately ripped
8 | (6/6) Accurately ripped
9 | (6/6) Accurately ripped
10 | (6/6) Accurately ripped
11 | (6/6) Accurately ripped
12 | (6/6) Accurately ripped
13 | (6/6) Accurately ripped
14 | (6/6) Accurately ripped
15 | (6/6) Accurately ripped
16 | (6/6) Accurately ripped
17 | (6/6) Accurately ripped
18 | (6/6) Accurately ripped
[AccurateRip ID: 002efa45-0272106a-0c10f512] found.
Track [ CRC | V2 ] Status
01 [3ba7ad49|4fe00a39] (06+06/12) Accurately ripped
02 [b7ac6443|b17a7a3d] (07+06/13) Accurately ripped
03 [5e45cc0a|c6b20d02] (08+06/14) Accurately ripped
04 [87d66be3|1835155e] (07+06/13) Accurately ripped
05 [3e1469b7|772ec6b6] (07+06/13) Accurately ripped
06 [324187da|4bd00330] (07+06/13) Accurately ripped
07 [7022b28d|c3f75b21] (07+06/13) Accurately ripped
08 [2af98547|f0817fe8] (07+06/13) Accurately ripped
09 [ba2afc80|08aefe95] (07+06/13) Accurately ripped
10 [d7cf3a8c|7b849ccb] (07+06/13) Accurately ripped
11 [652f5575|0d261bed] (08+06/14) Accurately ripped
12 [54417126|f77308c0] (08+06/14) Accurately ripped
13 [4e5a276b|04fa8a8d] (08+06/14) Accurately ripped
14 [b27b2c29|a225f583] (08+06/14) Accurately ripped
15 [23e5a203|277a0275] (08+06/14) Accurately ripped
16 [b1356876|b488a651] (08+05/13) Accurately ripped
17 [deae945c|fbb10b07] (07+06/13) Accurately ripped
18 [23d7e045|f86e091e] (07+06/13) Accurately ripped

Track Peak [ CRC32 ] [W/O NULL] [ LOG ]
– 100,0 [A055E656] [9B9B572B]
01 100,0 [A5140A49] [ED8E9C8F] CRC32
02 89,2 [5628383E] [ECEE0A24] CRC32
03 87,6 [667AF9D6] [8E6A20E2] CRC32
04 90,1 [84E54481] [0A5D3D94] CRC32
05 94,4 [B58498BD] [B8A6A145] CRC32
06 99,4 [10A991D2] [927ECE1C] CRC32
07 97,7 [39913305] [3C3EC627] CRC32
08 88,3 [22E61A26] [7983E66A] CRC32
09 89,1 [C3EC0283] [FE6776D3] CRC32
10 100,0 [186A530B] [A66DF9EC] CRC32
11 95,3 [E07C1112] [B983D4B8] CRC32
12 78,8 [08427CF2] [F45D6DBE] CRC32
13 82,2 [810F758B] [2EA878D4] CRC32
14 84,1 [702615F1] [FFFD6224] CRC32
15 84,1 [7622A74C] [1F9B471F] CRC32
16 84,1 [3262EA0D] [081AB26F] CRC32
17 84,1 [E24E5C71] [55FC9F6E] CRC32
18 91,3 [2B4E6149] [96EE05C4] CRC32

foobar2000 1.2 / Dynamic Range Meter 1.1.1
log date: 2018-09-25 03:44:38

––––––––––––––––––––––––––––––––––––––––
Analyzed: John Hammond / Live
––––––––––––––––––––––––––––––––––––––––

DR Peak RMS Duration Track
––––––––––––––––––––––––––––––––––––––––
DR14 0.00 dB -17.28 dB 4:41 01-I Wish You Would
DR14 -0.99 dB -18.22 dB 3:30 02-Saddle My Pony
DR13 -1.15 dB -17.40 dB 4:08 03-Cat Man Blues
DR12 -0.90 dB -16.41 dB 3:10 04-Custard Pie
DR15 -0.49 dB -21.07 dB 4:00 05-One Kind Favor
DR12 -0.05 dB -15.66 dB 4:10 06-I Can't Be Satisfied
DR12 -0.19 dB -14.45 dB 4:30 07-Dust My Broom
DR14 -1.07 dB -19.00 dB 4:26 08-Low Down Dog
DR13 -1.00 dB -17.15 dB 3:23 09-Little School Girl
DR13 0.00 dB -15.33 dB 3:19 10-Shake For Me
DR14 -0.41 dB -16.60 dB 4:40 11-Drop Down Mama
DR13 -2.06 dB -17.43 dB 4:02 12-Texas Tornado
DR13 -1.70 dB -17.88 dB 4:37 13-Steady Rollin' Man
DR13 -1.50 dB -17.12 dB 3:20 14-Ain't That Lovin' You Baby
DR12 -1.50 dB -16.17 dB 4:21 15-Sail On
DR13 -1.50 dB -17.29 dB 3:37 16-Wang Dang Doodle
DR15 -1.50 dB -20.13 dB 3:26 17-Honeymoon Blues
DR14 -0.79 dB -17.66 dB 5:01 18-I'm Movin' On
––––––––––––––––––––––––––––––––––––––––

Number of tracks: 18
Official DR value: DR13

Samplerate: 44100 Hz
Channels: 2
Bits per sample: 16
Bitrate: 886 kbps
Codec: FLAC
================================================================================

John Hammond - John Hammond Live (1983) Reissue 1991

John Hammond - John Hammond Live (1983) Reissue 1991