Subcategories

John Hammond - 'Source Point' (1971) + 'I'm Satisfied' (1972) 2 LP in 1 CD, Remastered 2007 [Re-Up]

Posted By: Designol
John Hammond - 'Source Point' (1971) + 'I'm Satisfied' (1972) 2 LP in 1 CD, Remastered 2007 [Re-Up]

John Hammond - 'Source Point' (1971) + 'I'm Satisfied' (1972)
2 LP in 1 CD, Remastered 2007

EAC | FLAC | Image (Cue&Log) ~ 449 Mb | Mp3 (CBR320) ~ 170 Mb | Scans included
Blues, Blues-Rock, Folk Blues | Label: Acadia | # ACAM8145 | Time: 01:10:59

For the first time ever on CD, brings together two landmark albums by veteran blues master JOHN HAMMOND - Source Point (1971) and I'm Satisfied (1972). Originally recorded for Columbia, these two albums are the missing links in a career charted by a series of popular recordings for Vanguard and Atlantic. Hammond began his career on the New York coffeehouse scene at the beginning of the first blues renaissance of the early '60s, and these albums confirm his status as one of the finest interpreters of Chicago blues. These recordings show Hammond as a more than capable band leader playing electric as well as acoustic guitar on some of the best Chicago style electric blues ever recorded. Source Point drives bitterly hard and unforgiving with Hammond tackling blues standards by Little Walter ('Tell Me Mama'), Muddy Waters ('She Moves Me'), Slim Harpo ('I Got Love If You Want It'), Howlin' Wolf ('No Place to Go') and Willie Dixon ('Mellow Down Easy'). I'm Satisfied forges a more pensive and measured atmosphere with songs by the record's producer Delaney Bramlett ('I'm Satisfied', 'I'm Gonna Leave'), Robert Johnson ('From Four Until Late') and Blind Willie McTell ('Mama 'Tain't Long Fo' Day'). 'Last Night' and 'Rock Me Baby', the two bonus tracks from Triumvirate - Dr. John, Mike Bloomfield and Hammond - highlight the distinguished company he played with, the fine articulation of his voice and superlative blues guitar licks.

John Hammond's lifelong fascination with the country blues is well-known, and his passion for it is admirable, even if his approximation of it on his many records is at times a bit of an acquired taste. No one can doubt his fervor for the genre, though, and he has developed over the years into a much less affected vocalist, a solid slide player, and a stirring and excellent harmonica player. This set combines his two albums for Columbia Records, 1970's Source Point and 1972's I'm Satisfied, on a 21-track single disc, and while on paper the two albums wouldn't appear to be good running mates, they actually fit together pretty well. Hammond produced the spare Source Point himself, working with a rhythm section of Charles Otis on drums and Billy Nichols on bass, and manages to get a nice, natural, and slightly swampy sound going, particularly on the lead cut, a cover of Slim Harpo's "I Got Love If You Want It," the haunting "My First Plea," and a ragged, stomping version of the classic "Junco Partner." I'm Satisfied is a more complex affair. Produced by Delaney Bramlett, it features horns, gospel backing vocals, layered guitars, and stacks of keyboards, and has a distinct Southern rock feel. It manages to work much more than it doesn't, and the highlights include the fast shufflin' "Man in the Road" and the impressive "Ride Till I Die (Jockey Blues)." At times Hammond's voice feels almost like an afterthought, but the album was by no means a train wreck. Placed together, the two sessions, although obviously quite different in their angles of approach, share a certain general atmospheric feel, and if neither alone is exactly essential, together they show Hammond willing to try different things, even as the blues stay central in all of it.

Review by Steve Leggett, Allmusic.com

John Hammond - 'Source Point' (1971) + 'I'm Satisfied' (1972) 2 LP in 1 CD, Remastered 2007 [Re-Up]



Tracklist:

'Source Point' (1971):

01. I Got Love If You Want It (3:20)
02. Hoo-Doo Blues (3:43)
03. Mellow Down Easy (3:09)
04. Takin' Care Of Business (3:19)
05. She Moves Me (3:14)
06. Let's Go Home (2:59)
07. Tell Me Mama (3:11)
08. No Place To Go (3:48)
09. My First Plea (4:52)
10. Junco Partner (2:36)
11. As The Years Go Passing By (4:09)

'I'm Satisfied' (1972):

12. Outside Your Door (3:45)
13. If You Ever Need A Man (3:56)
14. Man In The Road (2:28)
15. Mama Tain't Long For Day (4:27)
16. Further Up The Road (2:47)
17. I'm Satisfied (3:24)
18. I You Got The Feelin' (2:35)
19. Ride Till I Die (Jockey Blues) (2:34)
20. I'm Gonna Leave (2:54)
21. From Four Until Late (3:48)


Exact Audio Copy V0.99 prebeta 3 from 28. July 2007

EAC Auslese-Logdatei vom 7. Oktober 2010, 14:05

John Hammond / Source Point I'm Satisfied

Benutztes Laufwerk : Optiarc DVD RW AD-7241S Adapter: 1 ID: 0

Lesemodus : Sicher
Benutze Accurate Stream : Ja
Audio Puffer abgeschaltet : Ja
Benutze C2 Fehlerinformationen : Nein

Leseoffset Korrektur : 48
Überlesen in das Lead-In und Lead-Out : Nein
Fülle fehlende Offsetsample mit Stille auf : Ja
Lösche führende und nachfolgende stille Blöcke : Nein
Null Samples gehen in CRC Berechnungen ein : Nein
Benutzte Schnittstelle : Natürliche Win32 Schnittstelle für Win NT/2000/XP

Benutztes Ausgabeformat : Benutzerdefinierter Komprimierer
Gewählte Bitrate : 768 kBit/s
Qualität : Hoch
Füge ID3 Tag hinzu : Nein
Kommandozeilen Komprimierer : C:\Programme\Exact Audio Copy\FLAC\FLAC.EXE
Zusätzliche Kommandozeilenoptionen : -6 -V -T "ARTIST=%a" -T "TITLE=%t" -T "ALBUM=%g" -T "DATE=%y" -T "TRACKNUMBER=%n" -T "GENRE=%m" -T "COMMENT=%e" %s -o %d


TOC der ausgelesenen CD

Track | Start | Länge | Startsektor | Endsektor
–––––––––––––––––––––––––––-
1 | 0:00.00 | 3:20.31 | 0 | 15030
2 | 3:20.31 | 3:42.69 | 15031 | 31749
3 | 7:03.25 | 3:09.35 | 31750 | 45959
4 | 10:12.60 | 3:18.44 | 45960 | 60853
5 | 13:31.29 | 3:14.00 | 60854 | 75403
6 | 16:45.29 | 2:59.37 | 75404 | 88865
7 | 19:44.66 | 3:10.73 | 88866 | 103188
8 | 22:55.64 | 3:48.20 | 103189 | 120308
9 | 26:44.09 | 4:52.16 | 120309 | 142224
10 | 31:36.25 | 2:35.69 | 142225 | 153918
11 | 34:12.19 | 4:08.61 | 153919 | 172579
12 | 38:21.05 | 3:44.62 | 172580 | 189441
13 | 42:05.67 | 3:55.47 | 189442 | 207113
14 | 46:01.39 | 2:27.66 | 207114 | 218204
15 | 48:29.30 | 4:27.07 | 218205 | 238236
16 | 52:56.37 | 2:47.26 | 238237 | 250787
17 | 55:43.63 | 3:23.59 | 250788 | 266071
18 | 59:07.47 | 2:35.27 | 266072 | 277723
19 | 61:42.74 | 2:34.02 | 277724 | 289275
20 | 64:17.01 | 2:53.45 | 289276 | 302295
21 | 67:10.46 | 3:48.25 | 302296 | 319420


Bereichsstatus und Fehler

Gewählter Bereich

Dateiname E:\New Folder 1\hamont2st\John Hammond - Source Point I'm Satisfied.wav

Spitzenpegel 100.0 %
Bereichsqualität 100.0 %
Kopie CRC AC36F875
Kopie OK

Keine Fehler aufgetreten


AccurateRip Übersicht

Track 1 akkurat gelesen (Zuversicht 1) [455D8CE0]
Track 2 akkurat gelesen (Zuversicht 1) [370160A3]
Track 3 akkurat gelesen (Zuversicht 1) [13A90D82]
Track 4 akkurat gelesen (Zuversicht 1) [9F2DA23B]
Track 5 akkurat gelesen (Zuversicht 1) [340F1E73]
Track 6 akkurat gelesen (Zuversicht 1) [5F0DDA63]
Track 7 akkurat gelesen (Zuversicht 1) [A7C02102]
Track 8 akkurat gelesen (Zuversicht 1) [2529E92D]
Track 9 akkurat gelesen (Zuversicht 1) [7CAB8C7D]
Track 10 akkurat gelesen (Zuversicht 1) [0A2D5740]
Track 11 akkurat gelesen (Zuversicht 1) [E45B1888]
Track 12 akkurat gelesen (Zuversicht 1) [085CF18E]
Track 13 akkurat gelesen (Zuversicht 1) [654D0AA8]
Track 14 akkurat gelesen (Zuversicht 1) [78DF6F95]
Track 15 akkurat gelesen (Zuversicht 1) [B5BB6920]
Track 16 akkurat gelesen (Zuversicht 1) [86DC1AB0]
Track 17 akkurat gelesen (Zuversicht 1) [D59704F6]
Track 18 akkurat gelesen (Zuversicht 1) [23949C63]
Track 19 akkurat gelesen (Zuversicht 1) [B14801D9]
Track 20 akkurat gelesen (Zuversicht 1) [65571006]
Track 21 akkurat gelesen (Zuversicht 1) [6F4A94B2]

Alle Tracks wurden akkurat gelesen

Ende des Statusreports

[CUETools log; Date: 22.05.2017 23:25:18; Version: 2.1.4]
[CTDB TOCID: Jq.LdCEtvbhUbqhoxONLZ_6ymNE-] found.
Track | CTDB Status
1 | (1/1) Accurately ripped
2 | (1/1) Accurately ripped
3 | (1/1) Accurately ripped
4 | (1/1) Accurately ripped
5 | (1/1) Accurately ripped
6 | (1/1) Accurately ripped
7 | (1/1) Accurately ripped
8 | (1/1) Accurately ripped
9 | (1/1) Accurately ripped
10 | (1/1) Accurately ripped
11 | (1/1) Accurately ripped
12 | (1/1) Accurately ripped
13 | (1/1) Accurately ripped
14 | (1/1) Accurately ripped
15 | (1/1) Accurately ripped
16 | (1/1) Accurately ripped
17 | (1/1) Accurately ripped
18 | (1/1) Accurately ripped
19 | (1/1) Accurately ripped
20 | (1/1) Accurately ripped
21 | (1/1) Accurately ripped
[AccurateRip ID: 00367416-0342f6b0-2310a215] found.
Track [ CRC | V2 ] Status
01 [455d8ce0|b02ebe78] (2+0/2) Accurately ripped
02 [370160a3|5de993e4] (2+0/2) Accurately ripped
03 [13a90d82|55bdd6ee] (2+0/2) Accurately ripped
04 [9f2da23b|a7c5894d] (2+0/2) Accurately ripped
05 [340f1e73|50c8d2c9] (2+0/2) Accurately ripped
06 [5f0dda63|c19228cf] (2+0/2) Accurately ripped
07 [a7c02102|6e2a199f] (2+0/2) Accurately ripped
08 [2529e92d|68dcd616] (2+0/2) Accurately ripped
09 [7cab8c7d|d01bbfa0] (2+0/2) Accurately ripped
10 [0a2d5740|56b22fb1] (2+0/2) Accurately ripped
11 [e45b1888|6b2bc9f8] (2+0/2) Accurately ripped
12 [085cf18e|089473af] (2+0/2) Accurately ripped
13 [654d0aa8|d09b8a85] (2+0/2) Accurately ripped
14 [78df6f95|367a8b87] (2+0/2) Accurately ripped
15 [b5bb6920|5030e0b4] (2+0/2) Accurately ripped
16 [86dc1ab0|d9ca0ac5] (2+0/2) Accurately ripped
17 [d59704f6|a755087e] (2+0/2) Accurately ripped
18 [23949c63|1fbc4b95] (2+0/2) Accurately ripped
19 [b14801d9|1e175751] (2+0/2) Accurately ripped
20 [65571006|464f391c] (2+0/2) Accurately ripped
21 [6f4a94b2|fcd58e8b] (2+0/2) Accurately ripped

Track Peak [ CRC32 ] [W/O NULL]
– 100,0 [0D0CD823] [AC36F875]
01 100,0 [F5C7F6CF] [E82C0904]
02 100,0 [5A5351B2] [74A69391]
03 100,0 [EB49AEAB] [82981D1B]
04 100,0 [C9E42330] [60EC8CAE]
05 100,0 [78610A5C] [C3ACDB83]
06 100,0 [070ACD7B] [1DB06823]
07 100,0 [CAC82439] [26235454]
08 100,0 [2ACEB209] [A17411E5]
09 100,0 [9A08C260] [CCE905E6]
10 100,0 [68F7F839] [8B2364D4]
11 100,0 [BECE93A3] [976C43A1]
12 100,0 [5E699FB9] [CE388388]
13 100,0 [53E58B0F] [447B9D57]
14 100,0 [08F6C792] [59AD3ACA]
15 100,0 [6844FEFF] [E15A4C15]
16 100,0 [CE323D29] [E5266510]
17 100,0 [AF964078] [934056F9]
18 100,0 [FEA6D747] [81F4036F]
19 100,0 [CA8F2C92] [5C9DAA48]
20 100,0 [3EEBE463] [AE7BCF30]
21 100,0 [AB03E5D0] [78E2BA1B]

foobar2000 1.2 / Dynamic Range Meter 1.1.1
log date: 2017-05-22 22:49:25

––––––––––––––––––––––––––––––––––––––––
Analyzed: John Hammond / Source Point I'm Satisfied
––––––––––––––––––––––––––––––––––––––––

DR Peak RMS Duration Track
––––––––––––––––––––––––––––––––––––––––
DR9 0.00 dB -9.99 dB 3:20 01-I Got Love If You Want It
DR9 0.00 dB -10.19 dB 3:43 02-Hoo-Doo Blues
DR8 0.00 dB -9.43 dB 3:09 03-Mellow Down Easy
DR8 0.00 dB -9.07 dB 3:19 04-Takin' Care Of Business
DR10 0.00 dB -11.85 dB 3:14 05-She Moves Me
DR8 0.00 dB -9.54 dB 2:59 06-Let's Go Home
DR9 0.00 dB -10.51 dB 3:11 07-Tell Me Mama
DR11 0.00 dB -12.83 dB 3:48 08-No Place To Go
DR10 0.00 dB -11.53 dB 4:52 09-My First Plea
DR9 0.00 dB -9.68 dB 2:36 10-Junco Partner
DR10 0.00 dB -12.94 dB 4:09 11-As The Years Go Passing By
DR9 0.00 dB -11.11 dB 3:45 12-Outside Your Door
DR8 0.00 dB -10.06 dB 3:56 13-If You Ever Need A Man
DR9 0.00 dB -10.20 dB 2:28 14-Man In The Road
DR10 0.00 dB -11.60 dB 4:27 15-Mama Tain't Long For Day
DR8 0.00 dB -9.30 dB 2:47 16-Further Up The Road
DR7 0.00 dB -9.82 dB 3:24 17-I'm Satisfied
DR8 0.00 dB -9.20 dB 2:35 18-I You Got The Feelin'
DR8 0.00 dB -9.21 dB 2:34 19-Ride Till I Die (Jockey Blues)
DR7 0.00 dB -8.27 dB 2:54 20-I'm Gonna Leave
DR10 0.00 dB -12.32 dB 3:48 21-From Four Until Late
––––––––––––––––––––––––––––––––––––––––

Number of tracks: 21
Official DR value: DR9

Samplerate: 44100 Hz
Channels: 2
Bits per sample: 16
Bitrate: 870 kbps
Codec: FLAC
================================================================================

John Hammond - 'Source Point' (1971) + 'I'm Satisfied' (1972) 2 LP in 1 CD, Remastered 2007 [Re-Up]

John Hammond - 'Source Point' (1971) + 'I'm Satisfied' (1972) 2 LP in 1 CD, Remastered 2007 [Re-Up]

All thanks to original releaser

More interesting music in My Blog