Subcategories

John Hiatt - Crossing Muddy Waters (2000)

Posted By: Designol
John Hiatt - Crossing Muddy Waters (2000)

John Hiatt - Crossing Muddy Waters (2000)
EAC | FLAC | Image (Cue&Log) ~ 226 Mb | Mp3 (CBR320) ~ 87 Mb | Scans ~ 231 Mb
Americana, Folk, Blues | Label: Vanguard | # 79576-2 | 00:38:01

Crossing Muddy Waters was singer-songwriter John Hiatt's fifteenth album, released in 2000. A raw album recorded with no drummer, it was a purely acoustic album that brought elements of bluegrass music into his Americana sound. (The title of the album is a pun, referencing blues legend Muddy Waters.) It was nominated for a Grammy award in 2001 for Best Contemporary Folk Album.

Two and a half decades into a career that's never delivered the stardom forecast by legions of champions, John Hiatt has settled into a niche that's about as comfortable as a maturing singer-songwriter could ask for. No longer a major-label priority, Hiatt has hooked up with the stalwart folk label Vanguard for his 15th release. Crossing Muddy Waters adroitly captures Hiatt's comfort and confidence. Not so much blues as blusey, Crossing Muddy Waters features 11 new Hiatt compositions, half of which feel instantly familiar. The rambunctious "Lift Up Every Stone" sounds a little like some of Tom Waits's more accessible recent efforts, while "Take It Down" is a love-lost lament that's as heavy as a foggy evening. Crossing Muddy Waters was cut in three days and features only two accompanists–the uncommonly sympathetic Davey Faragher and David Immerglück. Just goes to show that Hiatt moves just fine when he's not dragging a lot of added weight and heavy expectations behind him.

Review by Steven Stolder

John Hiatt's 16th effort is a marked departure from his work of the previous 25 years, and a vast improvement over 1997's disappointing Little Head. Hiatt retrenched and recorded his first drummer-less, predominantly acoustic record for Vanguard. It's a sympathetic match and a smart move, since the company has a long, rich history working in the unplugged medium before it became trendy. The result is the most natural and relaxed John Hiatt album in years, and a welcome addition to his extensive catalog. With just a duo of acoustic multi-instrumentalists, Davey Faragher and David Immergluck (both longtime associates), Hiatt pulls out some of the most earnest, down-to-earth songs of his career. He sings like a man rejuvenated, totally at ease with his surroundings, and plays with the laid-back, homespun honesty that has infused his best work. Although some comical lyrical touches remain, the majority of the album is a sober reflection on lost love ("What Do We Do Now," the title track) and the resulting psychological scars. Hiatt's voice has never sounded better; its coarse edges sometimes straining for high notes works perfectly with this craggy, unpolished music. The mandolin is the most distinctive instrument here, and its brittle, trebly, crisp tone gives the disc an underlying tension, especially on the ballads that comprise the majority of the album. Heart-rending, sincere, stripped down yet multi-faceted, John Hiatt has taken a step forward by taking a small step back. Although not quite in a class with career highlights like Bring the Family or Slow Turning, Crossing Muddy Waters is a subtle treat and an album whose watercolor brush strokes paint a vibrant picture of stirring delicacy.

Review by Hal Horowitz, Allmusic.com

John Hiatt at Allmusic
John Hiatt Website
John Hiatt at Wiki

Tracklist:

01. Lincoln Town (4:03)
02. Crossing Muddy Waters (4:05)
03. What Do We Do Now (2:59)
04. Only the Song Survives (4:00)
05. Lift Up Every Stone (3:15)
06. Take It Down (4:00)
07. Gone (2:57)
08. Take It Back (3:05)
09. Mr. Stanley (3:33)
10. God's Golden Eyes (2:28)
11. Before I Go (3:35)


Exact Audio Copy V1.0 beta 6 from 9. April 2015

EAC extraction logfile from 31. October 2016, 3:09

John Hiatt / Crossing Muddy Waters

Used drive : ASUS SDRW-08D2S-U Adapter: 3 ID: 0

Read mode : Secure
Utilize accurate stream : Yes
Defeat audio cache : Yes
Make use of C2 pointers : No

Read offset correction : 6
Overread into Lead-In and Lead-Out : No
Fill up missing offset samples with silence : Yes
Delete leading and trailing silent blocks : No
Null samples used in CRC calculations : Yes
Used interface : Installed external ASPI interface

Used output format : User Defined Encoder
Selected bitrate : 320 kBit/s
Quality : High
Add ID3 tag : No
Command line compressor : C:\Program Files\Exact Audio Copy 1.0 b6\Exact Audio Copy\Flac\flac.exe
Additional command line options : -V -8 -T "Date=%year%" -T "Genre=%genre%" %source%


TOC of the extracted CD

Track | Start | Length | Start sector | End sector
––––––––––––––––––––––––––––-
1 | 0:00.00 | 4:03.37 | 0 | 18261
2 | 4:03.37 | 4:05.00 | 18262 | 36636
3 | 8:08.37 | 2:58.41 | 36637 | 50027
4 | 11:07.03 | 4:00.13 | 50028 | 68040
5 | 15:07.16 | 3:15.05 | 68041 | 82670
6 | 18:22.21 | 4:00.11 | 82671 | 100681
7 | 22:22.32 | 2:57.06 | 100682 | 113962
8 | 25:19.38 | 3:04.45 | 113963 | 127807
9 | 28:24.08 | 3:33.32 | 127808 | 143814
10 | 31:57.40 | 2:28.23 | 143815 | 154937
11 | 34:25.63 | 3:34.69 | 154938 | 171056


Range status and errors

Selected range

Filename L:\Lossless Temp\John Hiatt\2000. John Hiatt - Crossing Muddy Waters (2000 BMG, 79576-2, USA)\John Hiatt - Crossing Muddy Waters.wav

Peak level 99.7 %
Extraction speed 4.0 X
Range quality 100.0 %
Test CRC A51E8772
Copy CRC A51E8772
Copy OK

No errors occurred


AccurateRip summary

Track 1 accurately ripped (confidence 74) [9C2A9E43] (AR v2)
Track 2 accurately ripped (confidence 75) [81288A46] (AR v2)
Track 3 accurately ripped (confidence 75) [31632330] (AR v2)
Track 4 accurately ripped (confidence 75) [2D41DEE7] (AR v2)
Track 5 accurately ripped (confidence 75) [CC537FC1] (AR v2)
Track 6 accurately ripped (confidence 75) [A4FB9A67] (AR v2)
Track 7 accurately ripped (confidence 75) [D6EC88E4] (AR v2)
Track 8 accurately ripped (confidence 75) [097BF942] (AR v2)
Track 9 accurately ripped (confidence 75) [716F9790] (AR v2)
Track 10 accurately ripped (confidence 75) [06A74EC4] (AR v2)
Track 11 accurately ripped (confidence 74) [C782EB72] (AR v2)

All tracks accurately ripped

End of status report

==== Log checksum 17001DD83F2EA8CE8823EEA7520BA3B533B0F2823DC78E5EF5A4B2F8E81527EA ====

foobar2000 1.2 / Dynamic Range Meter 1.1.1
log date: 2017-05-11 17:24:06

––––––––––––––––––––––––––––––––––––––––
Analyzed: John Hiatt / Crossing Muddy Waters
––––––––––––––––––––––––––––––––––––––––

DR Peak RMS Duration Track
––––––––––––––––––––––––––––––––––––––––
DR8 -0.50 dB -10.01 dB 4:03 01-Lincoln Town
DR9 -1.10 dB -12.19 dB 4:05 02-Crossing Muddy Waters
DR9 -1.20 dB -12.14 dB 2:59 03-What Do We Do Now
DR10 -0.50 dB -11.56 dB 4:00 04-Only the Song Survives
DR8 -0.36 dB -10.59 dB 3:15 05-Lift Up Every Stone
DR9 -0.54 dB -12.21 dB 4:00 06-Take It Down
DR9 -0.50 dB -11.41 dB 2:57 07-Gone
DR10 -0.50 dB -11.59 dB 3:05 08-Take It Back
DR11 -0.03 dB -15.53 dB 3:33 09-Mr. Stanley
DR9 -2.21 dB -13.50 dB 2:28 10-God's Golden Eyes
DR9 -0.26 dB -11.07 dB 3:35 11-Before I Go
––––––––––––––––––––––––––––––––––––––––

Number of tracks: 11
Official DR value: DR9

Samplerate: 44100 Hz
Channels: 2
Bits per sample: 16
Bitrate: 834 kbps
Codec: FLAC
================================================================================

John Hiatt - Crossing Muddy Waters (2000)

John Hiatt - Crossing Muddy Waters (2000)

All thanks to original releaser - Swamp Fox

More interesting music in My Blog