Subcategories

John Mayall & Blues Breakers with Eric Clapton (1966) SHM-CD Reissue [mono & stereo 2 in 1] Re-Up

Posted By: Designol
John Mayall & Blues Breakers with Eric Clapton (1966) SHM-CD Reissue [mono & stereo 2 in 1] Re-Up

John Mayall & Blues Breakers with Eric Clapton (1966) SHM-CD Reissue [mono & stereo 2 in 1]
EAC | FLAC | Tracks (Cue&Log) ~ 515 Mb (incl 5%) | Mp3 (CBR320) ~ 181 Mb (incl 5%) | Scans ~ 81 Mb
Genre: British Blues, Blues Rock | Label: Universal | # UICY-25066 | Time: 01:15:17

This remastered release features both mono and stereo versions of each cut, and the differences are astounding. Eric Clapton did some his most inspired playing with John Mayall.

Bluesbreakers with Eric Clapton was Eric Clapton's first fully realized album as a blues guitarist – more than that, it was a seminal blues album of the 1960s, perhaps the best British blues album ever cut, and the best LP ever recorded by John Mayall's Bluesbreakers. Standing midway between Clapton's stint with the Yardbirds and the formation of Cream, this album featured the new guitar hero on a series of stripped-down blues standards, Mayall pieces, and one Mayall/Clapton composition, all of which had him stretching out in the idiom for the first time in the studio. This album was the culmination of a very successful year of playing with John Mayall, a fully realized blues creation, featuring sounds very close to the group's stage performances, and with no compromises. Credit has to go to producer Mike Vernon for the purity and simplicity of the record; most British producers of that era wouldn't have been able to get it recorded this way, much less released. One can hear the very direct influence of Buddy Guy and a handful of other American bluesmen in the playing. And lest anyone forget the rest of the quartet: future pop/rock superstar John McVie and drummer Hughie Flint provide a rock-hard rhythm section, and Mayall's organ playing, vocalizing, and second guitar are all of a piece with Clapton's work. His guitar naturally dominates most of this record, and he can also be heard taking his first lead vocal, but McVie and Flint are just as intense and give the tracks an extra level of steel-strung tension and power, none of which have diminished across several decades.

Review by Bruce Eder, Allmusic.com

John Mayall & Blues Breakers with Eric Clapton (1966) SHM-CD Reissue [mono & stereo 2 in 1] Re-Up



Tracklist:

Mono version:

01. All your love (mono) (03:38)
02. Hideaway (mono) (03:17)
03. Little girl (mono) (02:36)
04. Another man (mono) (01:47)
05. Double crossing time (mono) (03:04)
06. What'd I say (mono) (04:28)
07. Key to love (mono) (02:08)
08. Parchman farm (mono) (02:22)
09. Have you heard (mono) (05:56)
10. Ramblin' on my mind (mono) (03:08)
11. Steppin' out (mono) (02:30)
12. It ain't right (mono) (02:45)

Stereo version:

13. All your love (stereo) (03:35)
14. Hideaway (stereo) (03:15)
15. Little girl (stereo) (02:36)
16. Another man (stereo) (01:47)
17. Double crossing time (stereo) (03:02)
18. What'd I say (stereo) (04:28)
19. Key to love (stereo) (02:07)
20. Parchman farm (stereo) (02:23)
21. Have you heard (stereo) (05:56)
22. Ramblin' on my mind (stereo) (03:08)
23. Steppin' out (stereo) (02:29)
24. It ain't right (stereo) (02:40)


Exact Audio Copy V1.0 beta 3 from 29. August 2011

EAC extraction logfile from 30. March 2013, 2:33

John Mayall / Blues Breakers - …with Eric Clapton [2011, UICY-25066]

Used drive : ASUS DRW-22B3S Adapter: 0 ID: 0

Read mode : Secure
Utilize accurate stream : Yes
Defeat audio cache : Yes
Make use of C2 pointers : No

Read offset correction : 6
Overread into Lead-In and Lead-Out : No
Fill up missing offset samples with silence : Yes
Delete leading and trailing silent blocks : No
Null samples used in CRC calculations : Yes
Used interface : Installed external ASPI interface
Gap handling : Appended to previous track

Used output format : User Defined Encoder
Selected bitrate : 768 kBit/s
Quality : High
Add ID3 tag : No
Command line compressor : C:\Program Files\Exact Audio Copy\FLAC\FLAC.EXE
Additional command line options : -6 -V -T "ARTIST=%artist%" -T "TITLE=%title%" -T "ALBUM=%albumtitle%" -T "DATE=%year%" -T "TRACKNUMBER=%tracknr%" -T "GENRE=%genre%" -T "COMMENT=%comment%" -T "BAND=%albuminterpret%" -T "COMPOSER=%composer%" %haslyrics%–tag-from-file=LYRICS="%lyricsfile%"%haslyrics% -T "DISCNUMBER=%cdnumber%" -T "TOTALDISCS=%totalcds%" -T "TOTALTRACKS=%numtracks%" %hascover%–picture="%coverfile%"%hascover% %source% -o %dest%


TOC of the extracted CD

Track | Start | Length | Start sector | End sector
––––––––––––––––––––––––––––-
1 | 0:00.00 | 3:38.60 | 0 | 16409
2 | 3:38.60 | 3:17.12 | 16410 | 31196
3 | 6:55.72 | 2:36.68 | 31197 | 42964
4 | 9:32.65 | 1:47.05 | 42965 | 50994
5 | 11:19.70 | 3:04.70 | 50995 | 64864
6 | 14:24.65 | 4:28.35 | 64865 | 84999
7 | 18:53.25 | 2:08.67 | 85000 | 94666
8 | 21:02.17 | 2:22.10 | 94667 | 105326
9 | 23:24.27 | 5:56.45 | 105327 | 132071
10 | 29:20.72 | 3:08.63 | 132072 | 146234
11 | 32:29.60 | 2:30.60 | 146235 | 157544
12 | 35:00.45 | 2:45.10 | 157545 | 169929
13 | 37:45.55 | 3:35.17 | 169930 | 186071
14 | 41:20.72 | 3:15.23 | 186072 | 200719
15 | 44:36.20 | 2:36.32 | 200720 | 212451
16 | 47:12.52 | 1:47.18 | 212452 | 220494
17 | 48:59.70 | 3:02.62 | 220495 | 234206
18 | 52:02.57 | 4:28.13 | 234207 | 254319
19 | 56:30.70 | 2:07.62 | 254320 | 263906
20 | 58:38.57 | 2:23.45 | 263907 | 274676
21 | 61:02.27 | 5:56.35 | 274677 | 301411
22 | 66:58.62 | 3:08.68 | 301412 | 315579
23 | 70:07.55 | 2:29.72 | 315580 | 326826
24 | 72:37.52 | 2:40.23 | 326827 | 338849


Track 1

Filename D:\Downloads\John Mayall - Blues Breakers… with Eric Clapton (1966) [2011, UICY-25066]\01. All your love (mono).wav

Pre-gap length 0:00:02.00

Peak level 100.0 %
Extraction speed 3.0 X
Track quality 99.9 %
Test CRC 33BFED15
Copy CRC 33BFED15
Accurately ripped (confidence 2) [9A118C19] (AR v2)
Copy OK

Track 2

Filename D:\Downloads\John Mayall - Blues Breakers… with Eric Clapton (1966) [2011, UICY-25066]\02. Hideaway (mono).wav

Pre-gap length 0:00:03.57

Peak level 99.7 %
Extraction speed 4.0 X
Track quality 100.0 %
Test CRC 97100794
Copy CRC 97100794
Accurately ripped (confidence 2) [371167CD] (AR v2)
Copy OK

Track 3

Filename D:\Downloads\John Mayall - Blues Breakers… with Eric Clapton (1966) [2011, UICY-25066]\03. Little girl (mono).wav

Pre-gap length 0:00:03.44

Peak level 100.0 %
Extraction speed 4.1 X
Track quality 100.0 %
Test CRC A173E811
Copy CRC A173E811
Accurately ripped (confidence 2) [A30C036B] (AR v2)
Copy OK

Track 4

Filename D:\Downloads\John Mayall - Blues Breakers… with Eric Clapton (1966) [2011, UICY-25066]\04. Another man (mono).wav

Pre-gap length 0:00:03.37

Peak level 100.0 %
Extraction speed 3.8 X
Track quality 100.0 %
Test CRC 1D535349
Copy CRC 1D535349
Accurately ripped (confidence 2) [5B5F4A6E] (AR v2)
Copy OK

Track 5

Filename D:\Downloads\John Mayall - Blues Breakers… with Eric Clapton (1966) [2011, UICY-25066]\05. Double crossing time (mono).wav

Pre-gap length 0:00:02.07

Peak level 99.4 %
Extraction speed 3.5 X
Track quality 99.9 %
Test CRC 31525B05
Copy CRC 31525B05
Accurately ripped (confidence 2) [243C82C1] (AR v2)
Copy OK

Track 6

Filename D:\Downloads\John Mayall - Blues Breakers… with Eric Clapton (1966) [2011, UICY-25066]\06. What'd I say (mono).wav

Pre-gap length 0:00:04.17

Peak level 100.0 %
Extraction speed 5.0 X
Track quality 100.0 %
Test CRC 4865ADF8
Copy CRC 4865ADF8
Accurately ripped (confidence 2) [E9DB60F1] (AR v2)
Copy OK

Track 7

Filename D:\Downloads\John Mayall - Blues Breakers… with Eric Clapton (1966) [2011, UICY-25066]\07. Key to love (mono).wav

Pre-gap length 0:00:02.59

Peak level 100.0 %
Extraction speed 4.6 X
Track quality 100.0 %
Test CRC BBEF0390
Copy CRC BBEF0390
Accurately ripped (confidence 2) [12951708] (AR v2)
Copy OK

Track 8

Filename D:\Downloads\John Mayall - Blues Breakers… with Eric Clapton (1966) [2011, UICY-25066]\08. Parchman farm (mono).wav

Pre-gap length 0:00:03.16

Peak level 100.0 %
Extraction speed 4.9 X
Track quality 100.0 %
Test CRC 98463E0D
Copy CRC 98463E0D
Accurately ripped (confidence 2) [131B6EEE] (AR v2)
Copy OK

Track 9

Filename D:\Downloads\John Mayall - Blues Breakers… with Eric Clapton (1966) [2011, UICY-25066]\09. Have you heard (mono).wav

Pre-gap length 0:00:03.21

Peak level 100.0 %
Extraction speed 5.9 X
Track quality 100.0 %
Test CRC 70E4853A
Copy CRC 70E4853A
Accurately ripped (confidence 2) [1EB947EB] (AR v2)
Copy OK

Track 10

Filename D:\Downloads\John Mayall - Blues Breakers… with Eric Clapton (1966) [2011, UICY-25066]\10. Ramblin' on my mind (mono).wav

Pre-gap length 0:00:03.21

Peak level 96.0 %
Extraction speed 5.6 X
Track quality 100.0 %
Test CRC 947C0978
Copy CRC 947C0978
Accurately ripped (confidence 2) [BE5A2D18] (AR v2)
Copy OK

Track 11

Filename D:\Downloads\John Mayall - Blues Breakers… with Eric Clapton (1966) [2011, UICY-25066]\11. Steppin' out (mono).wav

Pre-gap length 0:00:02.44

Peak level 100.0 %
Extraction speed 5.6 X
Track quality 100.0 %
Test CRC DA246702
Copy CRC DA246702
Accurately ripped (confidence 2) [27766985] (AR v2)
Copy OK

Track 12

Filename D:\Downloads\John Mayall - Blues Breakers… with Eric Clapton (1966) [2011, UICY-25066]\12. It ain't right (mono).wav

Pre-gap length 0:00:03.17

Peak level 98.9 %
Extraction speed 5.8 X
Track quality 100.0 %
Test CRC 56EF4261
Copy CRC 56EF4261
Accurately ripped (confidence 2) [D8E8A5E6] (AR v2)
Copy OK

Track 13

Filename D:\Downloads\John Mayall - Blues Breakers… with Eric Clapton (1966) [2011, UICY-25066]\13. All your love (stereo).wav

Pre-gap length 0:00:06.12

Peak level 91.4 %
Extraction speed 6.2 X
Track quality 100.0 %
Test CRC AFB89FB5
Copy CRC AFB89FB5
Accurately ripped (confidence 2) [DB873F3B] (AR v2)
Copy OK

Track 14

Filename D:\Downloads\John Mayall - Blues Breakers… with Eric Clapton (1966) [2011, UICY-25066]\14. Hideaway (stereo).wav

Pre-gap length 0:00:02.46

Peak level 93.5 %
Extraction speed 6.3 X
Track quality 100.0 %
Test CRC 1D3D9C64
Copy CRC 1D3D9C64
Accurately ripped (confidence 2) [786233E7] (AR v2)
Copy OK

Track 15

Filename D:\Downloads\John Mayall - Blues Breakers… with Eric Clapton (1966) [2011, UICY-25066]\15. Little girl (stereo).wav

Pre-gap length 0:00:01.54

Peak level 92.7 %
Extraction speed 6.2 X
Track quality 100.0 %
Test CRC 40ACE690
Copy CRC 40ACE690
Accurately ripped (confidence 2) [A9C160AF] (AR v2)
Copy OK

Track 16

Filename D:\Downloads\John Mayall - Blues Breakers… with Eric Clapton (1966) [2011, UICY-25066]\16. Another man (stereo).wav

Pre-gap length 0:00:03.26

Peak level 96.7 %
Extraction speed 3.9 X
Track quality 99.9 %
Test CRC 35CC90BA
Copy CRC 35CC90BA
Accurately ripped (confidence 2) [7D58B8FB] (AR v2)
Copy OK

Track 17

Filename D:\Downloads\John Mayall - Blues Breakers… with Eric Clapton (1966) [2011, UICY-25066]\17. Double crossing time (stereo).wav

Pre-gap length 0:00:03.44

Peak level 95.5 %
Extraction speed 6.6 X
Track quality 100.0 %
Test CRC 2E1EFDC1
Copy CRC 2E1EFDC1
Accurately ripped (confidence 2) [03201270] (AR v2)
Copy OK

Track 18

Filename D:\Downloads\John Mayall - Blues Breakers… with Eric Clapton (1966) [2011, UICY-25066]\18. What'd I say (stereo).wav

Pre-gap length 0:00:02.11

Peak level 96.9 %
Extraction speed 7.1 X
Track quality 100.0 %
Test CRC 08AD6454
Copy CRC 08AD6454
Accurately ripped (confidence 2) [22C38443] (AR v2)
Copy OK

Track 19

Filename D:\Downloads\John Mayall - Blues Breakers… with Eric Clapton (1966) [2011, UICY-25066]\19. Key to love (stereo).wav

Pre-gap length 0:00:02.64

Peak level 100.0 %
Extraction speed 4.6 X
Track quality 99.9 %
Test CRC C8D7D426
Copy CRC C8D7D426
Accurately ripped (confidence 2) [5D1D4834] (AR v2)
Copy OK

Track 20

Filename D:\Downloads\John Mayall - Blues Breakers… with Eric Clapton (1966) [2011, UICY-25066]\20. Parchman farm (stereo).wav

Pre-gap length 0:00:02.34

Peak level 100.0 %
Extraction speed 6.7 X
Track quality 100.0 %
Test CRC E1200876
Copy CRC E1200876
Accurately ripped (confidence 2) [6B8D4B4E] (AR v2)
Copy OK

Track 21

Filename D:\Downloads\John Mayall - Blues Breakers… with Eric Clapton (1966) [2011, UICY-25066]\21. Have you heard (stereo).wav

Pre-gap length 0:00:03.29

Peak level 100.0 %
Extraction speed 7.8 X
Track quality 100.0 %
Test CRC DC1C5262
Copy CRC DC1C5262
Accurately ripped (confidence 2) [DA5B0D40] (AR v2)
Copy OK

Track 22

Filename D:\Downloads\John Mayall - Blues Breakers… with Eric Clapton (1966) [2011, UICY-25066]\22. Ramblin' on my mind (stereo).wav

Pre-gap length 0:00:03.19

Peak level 95.5 %
Extraction speed 5.6 X
Track quality 99.9 %
Test CRC 94C3E064
Copy CRC 94C3E064
Accurately ripped (confidence 2) [EAB69180] (AR v2)
Copy OK

Track 23

Filename D:\Downloads\John Mayall - Blues Breakers… with Eric Clapton (1966) [2011, UICY-25066]\23. Steppin' out (stereo).wav

Pre-gap length 0:00:03.19

Peak level 97.4 %
Extraction speed 7.1 X
Track quality 100.0 %
Test CRC 3A723ACE
Copy CRC 3A723ACE
Accurately ripped (confidence 2) [5C4CF03C] (AR v2)
Copy OK

Track 24

Filename D:\Downloads\John Mayall - Blues Breakers… with Eric Clapton (1966) [2011, UICY-25066]\24. It ain't right (stereo).wav

Pre-gap length 0:00:03.01

Peak level 93.8 %
Extraction speed 7.3 X
Track quality 100.0 %
Test CRC DC8E9498
Copy CRC DC8E9498
Accurately ripped (confidence 2) [AEE51517] (AR v2)
Copy OK


All tracks accurately ripped

No errors occurred

End of status report

–– CUETools DB Plugin V2.1.3

[CTDB TOCID: opJ2mc8oKDeSwYVJ.rBJ_Qf.c0E-] found, Submit result: already submitted
[216263a2] (169/169) Accurately ripped


==== Log checksum D8E0CCDB5C36581E1782226E83135875CDB2EF9D896C0A59FC1CCC61088A5604 ====

foobar2000 1.2 / Dynamic Range Meter 1.1.1
log date: 2013-05-07 22:51:50

––––––––––––––––––––––––––––––––––––––––
Analyzed: John Mayall / Blues Breakers - …with Eric Clapton [2011, UICY-25066]
––––––––––––––––––––––––––––––––––––––––

DR Peak RMS Duration Track
––––––––––––––––––––––––––––––––––––––––
DR7 0.00 dB -8.11 dB 3:39 01-All your love (mono)
DR6 -0.02 dB -7.04 dB 3:17 02-Hideaway (mono)
DR6 0.00 dB -6.78 dB 2:37 03-Little girl (mono)
DR9 0.00 dB -12.10 dB 1:47 04-Another man (mono)
DR7 -0.05 dB -8.55 dB 3:05 05-Double crossing time (mono)
DR6 0.00 dB -8.74 dB 4:28 06-What'd I say (mono)
DR7 0.00 dB -7.51 dB 2:09 07-Key to love (mono)
DR8 0.00 dB -9.10 dB 2:22 08-Parchman farm (mono)
DR8 0.00 dB -9.43 dB 5:57 09-Have you heard (mono)
DR9 -0.35 dB -11.54 dB 3:09 10-Ramblin' on my mind (mono)
DR7 0.00 dB -8.75 dB 2:31 11-Steppin' out (mono)
DR7 -0.09 dB -8.25 dB 2:45 12-It ain't right (mono)
DR6 -0.78 dB -7.57 dB 3:35 13-All your love (stereo)
DR5 -0.58 dB -6.39 dB 3:15 14-Hideaway (stereo)
DR5 -0.65 dB -6.72 dB 2:36 15-Little girl (stereo)
DR9 -0.28 dB -12.52 dB 1:47 16-Another man (stereo)
DR7 -0.39 dB -9.25 dB 3:03 17-Double crossing time (stereo)
DR5 -0.27 dB -8.53 dB 4:28 18-What'd I say (stereo)
DR7 0.00 dB -7.64 dB 2:08 19-Key to love (stereo)
DR9 0.00 dB -9.70 dB 2:24 20-Parchman farm (stereo)
DR8 0.00 dB -9.33 dB 5:56 21-Have you heard (stereo)
DR9 -0.40 dB -11.67 dB 3:09 22-Ramblin' on my mind (stereo)
DR6 -0.23 dB -7.71 dB 2:30 23-Steppin' out (stereo)
DR7 -0.55 dB -8.00 dB 2:40 24-It ain't right (stereo)
––––––––––––––––––––––––––––––––––––––––

Number of tracks: 24
Official DR value: DR7

Samplerate: 44100 Hz
Channels: 2
Bits per sample: 16
Bitrate: 1139 kbps
Codec: FLAC
================================================================================

John Mayall & Blues Breakers with Eric Clapton (1966) SHM-CD Reissue [mono & stereo 2 in 1] Re-Up

John Mayall & Blues Breakers with Eric Clapton (1966) SHM-CD Reissue [mono & stereo 2 in 1] Re-Up